999
dxfrw 0.5.11
0
SECTION
2
HEADER
9
$ACADVER
1
AC1021
9
$HANDSEED
5
20000
9
$DWGCODEPAGE
3
ANSI_1252
9
$INSBASE
10
0
20
0
30
0
9
$EXTMIN
10
-48
20
-14.2011991914
30
0
9
$EXTMAX
10
74.2570074798
20
110.100766924
30
0
9
$LIMMIN
10
0
20
0
9
$LIMMAX
10
420
20
297
9
$ORTHOMODE
70
0
9
$LTSCALE
40
1
9
$TEXTSTYLE
7
STANDARD
9
$CLAYER
8
0
9
$DIMASZ
40
1.5
9
$DIMLFAC
40
1
9
$DIMSCALE
40
1
9
$DIMEXO
40
0.5
9
$DIMEXE
40
0.9
9
$DIMTXT
40
1.5
9
$DIMTSZ
40
0
9
$DIMAUNIT
70
0
9
$DIMADEC
70
1
9
$DIMLUNIT
70
5
9
$DIMSTYLE
2
Standard
9
$DIMGAP
40
0.5
9
$DIMTIH
70
0
9
$LUNITS
70
5
9
$LUPREC
70
4
9
$AUNITS
70
0
9
$AUPREC
70
1
9
$SPLINESEGS
70
8
9
$GRIDMODE
70
1
9
$SNAPSTYLE
70
0
9
$GRIDUNIT
10
0
20
0
9
$PINSBASE
10
1.93982757032
20
1.5101886148
30
0
9
$PLIMMIN
10
0
20
0
9
$PLIMMAX
10
8.5
20
11
9
$INSUNITS
70
1
9
$PSVPSCALE
40
0.0833333333333
0
ENDSEC
0
SECTION
2
CLASSES
0
ENDSEC
0
SECTION
2
TABLES
0
TABLE
2
VPORT
5
8
330
0
100
AcDbSymbolTable
70
1
0
VPORT
5
31
330
2
100
AcDbSymbolTableRecord
100
AcDbViewportTableRecord
2
*ACTIVE
70
0
10
0
20
0
11
1
21
1
12
97.9738442187
22
65.6350291888
13
0
23
0
14
10
24
10
15
10
25
10
16
0
26
0
36
1
17
0
27
0
37
0
40
165.94918239
41
1.76666666667
42
50
43
0
44
0
50
0
51
0
71
0
72
100
73
1
74
3
75
0
76
1
77
0
78
0
281
0
65
1
110
0
120
0
130
0
111
1
121
0
131
0
112
0
122
1
132
0
79
0
146
0
348
10020
60
7
61
5
292
1
282
1
141
0
142
0
63
250
421
3358443
0
ENDTAB
0
TABLE
2
LTYPE
5
5
330
0
100
AcDbSymbolTable
70
4
0
LTYPE
5
14
330
5
100
AcDbSymbolTableRecord
100
AcDbLinetypeTableRecord
2
ByBlock
70
0
3

72
65
73
0
40
0
0
LTYPE
5
15
330
5
100
AcDbSymbolTableRecord
100
AcDbLinetypeTableRecord
2
ByLayer
70
0
3

72
65
73
0
40
0
0
LTYPE
5
16
330
5
100
AcDbSymbolTableRecord
100
AcDbLinetypeTableRecord
2
Continuous
70
0
3
Solid line
72
65
73
0
40
0
0
LTYPE
5
32
330
5
100
AcDbSymbolTableRecord
100
AcDbLinetypeTableRecord
2
DOT
70
0
3
Dot . . . . . . . . . . . . . . . . . . . . . .
72
65
73
2
40
6.35
49
0
74
0
49
-6.35
74
0
0
LTYPE
5
33
330
5
100
AcDbSymbolTableRecord
100
AcDbLinetypeTableRecord
2
DOT2
70
0
3
Dot (.5x) .....................................
72
65
73
2
40
3.175
49
0
74
0
49
-3.175
74
0
0
LTYPE
5
34
330
5
100
AcDbSymbolTableRecord
100
AcDbLinetypeTableRecord
2
DOTX2
70
0
3
Dot (2x) .  .  .  .  .  .  .  .  .  .  .  .  .
72
65
73
2
40
12.7
49
0
74
0
49
-12.7
74
0
0
LTYPE
5
35
330
5
100
AcDbSymbolTableRecord
100
AcDbLinetypeTableRecord
2
DASHED
70
0
3
Dot . . . . . . . . . . . . . . . . . . . . . .
72
65
73
2
40
19.05
49
12.7
74
0
49
-6.35
74
0
0
LTYPE
5
36
330
5
100
AcDbSymbolTableRecord
100
AcDbLinetypeTableRecord
2
DASHED2
70
0
3
Dashed (.5x) _ _ _ _ _ _ _ _ _ _ _ _ _ _ _ _ _
72
65
73
2
40
9.525
49
6.35
74
0
49
-3.175
74
0
0
LTYPE
5
37
330
5
100
AcDbSymbolTableRecord
100
AcDbLinetypeTableRecord
2
DASHEDX2
70
0
3
Dashed (2x) ____  ____  ____  ____  ____  ___
72
65
73
2
40
38.1
49
25.4
74
0
49
-12.7
74
0
0
LTYPE
5
38
330
5
100
AcDbSymbolTableRecord
100
AcDbLinetypeTableRecord
2
DASHDOT
70
0
3
Dash dot __ . __ . __ . __ . __ . __ . __ . __
72
65
73
4
40
25.4
49
12.7
74
0
49
-6.35
74
0
49
0
74
0
49
-6.35
74
0
0
LTYPE
5
39
330
5
100
AcDbSymbolTableRecord
100
AcDbLinetypeTableRecord
2
DASHDOT2
70
0
3
Dash dot (.5x) _._._._._._._._._._._._._._._.
72
65
73
4
40
12.7
49
6.35
74
0
49
-3.175
74
0
49
0
74
0
49
-3.175
74
0
0
LTYPE
5
3A
330
5
100
AcDbSymbolTableRecord
100
AcDbLinetypeTableRecord
2
DASHDOTX2
70
0
3
Dash dot (2x) ____  .  ____  .  ____  .  ___
72
65
73
4
40
50.8
49
25.4
74
0
49
-12.7
74
0
49
0
74
0
49
-12.7
74
0
0
LTYPE
5
3B
330
5
100
AcDbSymbolTableRecord
100
AcDbLinetypeTableRecord
2
DIVIDE
70
0
3
Divide ____ . . ____ . . ____ . . ____ . . ____
72
65
73
6
40
31.75
49
12.7
74
0
49
-6.35
74
0
49
0
74
0
49
-6.35
74
0
49
0
74
0
49
-6.35
74
0
0
LTYPE
5
3C
330
5
100
AcDbSymbolTableRecord
100
AcDbLinetypeTableRecord
2
DIVIDE2
70
0
3
Divide (.5x) __..__..__..__..__..__..__..__.._
72
65
73
6
40
15.875
49
6.35
74
0
49
-3.175
74
0
49
0
74
0
49
-3.175
74
0
49
0
74
0
49
-3.175
74
0
0
LTYPE
5
3D
330
5
100
AcDbSymbolTableRecord
100
AcDbLinetypeTableRecord
2
DIVIDEX2
70
0
3
Divide (2x) ________  .  .  ________  .  .  _
72
65
73
6
40
63.5
49
25.4
74
0
49
-12.7
74
0
49
0
74
0
49
-12.7
74
0
49
0
74
0
49
-12.7
74
0
0
LTYPE
5
3E
330
5
100
AcDbSymbolTableRecord
100
AcDbLinetypeTableRecord
2
BORDER
70
0
3
Border __ __ . __ __ . __ __ . __ __ . __ __ .
72
65
73
6
40
44.45
49
12.7
74
0
49
-6.35
74
0
49
12.7
74
0
49
-6.35
74
0
49
0
74
0
49
-6.35
74
0
0
LTYPE
5
3F
330
5
100
AcDbSymbolTableRecord
100
AcDbLinetypeTableRecord
2
BORDER2
70
0
3
Border (.5x) __.__.__.__.__.__.__.__.__.__.__.
72
65
73
6
40
22.225
49
6.35
74
0
49
-3.175
74
0
49
6.35
74
0
49
-3.175
74
0
49
0
74
0
49
-3.175
74
0
0
LTYPE
5
40
330
5
100
AcDbSymbolTableRecord
100
AcDbLinetypeTableRecord
2
BORDERX2
70
0
3
Border (2x) ____  ____  .  ____  ____  .  ___
72
65
73
6
40
88.9
49
25.4
74
0
49
-12.7
74
0
49
25.4
74
0
49
-12.7
74
0
49
0
74
0
49
-12.7
74
0
0
LTYPE
5
41
330
5
100
AcDbSymbolTableRecord
100
AcDbLinetypeTableRecord
2
CENTER
70
0
3
Center ____ _ ____ _ ____ _ ____ _ ____ _ ____
72
65
73
4
40
50.8
49
31.75
74
0
49
-6.35
74
0
49
6.35
74
0
49
-6.35
74
0
0
LTYPE
5
42
330
5
100
AcDbSymbolTableRecord
100
AcDbLinetypeTableRecord
2
CENTER2
70
0
3
Center (.5x) ___ _ ___ _ ___ _ ___ _ ___ _ ___
72
65
73
4
40
28.575
49
19.05
74
0
49
-3.175
74
0
49
3.175
74
0
49
-3.175
74
0
0
LTYPE
5
43
330
5
100
AcDbSymbolTableRecord
100
AcDbLinetypeTableRecord
2
CENTERX2
70
0
3
Center (2x) ________  __  ________  __  _____
72
65
73
4
40
101.6
49
63.5
74
0
49
-12.7
74
0
49
12.7
74
0
49
-12.7
74
0
0
ENDTAB
0
TABLE
2
LAYER
5
2
330
0
100
AcDbSymbolTable
70
1
0
LAYER
5
10
330
2
100
AcDbSymbolTableRecord
100
AcDbLayerTableRecord
2
0
70
0
62
7
6
CONTINUOUS
370
0
390
F
0
LAYER
5
44
330
2
100
AcDbSymbolTableRecord
100
AcDbLayerTableRecord
2
Dimension
70
0
62
5
6
CONTINUOUS
370
18
390
F
0
LAYER
5
45
330
2
100
AcDbSymbolTableRecord
100
AcDbLayerTableRecord
2
Hidden
70
0
62
7
6
DASHED
370
18
390
F
0
LAYER
5
46
330
2
100
AcDbSymbolTableRecord
100
AcDbLayerTableRecord
2
Lumber
70
1
62
20
6
CONTINUOUS
370
0
390
F
0
LAYER
5
47
330
2
100
AcDbSymbolTableRecord
100
AcDbLayerTableRecord
2
Outline
70
0
62
7
6
CONTINUOUS
370
35
390
F
0
LAYER
5
48
330
2
100
AcDbSymbolTableRecord
100
AcDbLayerTableRecord
2
Sketch
70
1
62
1
6
CONTINUOUS
370
0
390
F
0
LAYER
5
49
330
2
100
AcDbSymbolTableRecord
100
AcDbLayerTableRecord
2
Thin
70
0
62
7
6
CONTINUOUS
370
18
390
F
0
LAYER
5
4A
330
2
100
AcDbSymbolTableRecord
100
AcDbLayerTableRecord
2
Title
70
0
62
5
6
CONTINUOUS
370
35
390
F
0
ENDTAB
0
TABLE
2
STYLE
5
3
330
0
100
AcDbSymbolTable
70
3
0
STYLE
5
4B
330
2
100
AcDbSymbolTableRecord
100
AcDbTextStyleTableRecord
2
iso
70
0
40
0
41
1
50
0
71
0
42
1
3
iso
4

0
STYLE
5
4C
330
2
100
AcDbSymbolTableRecord
100
AcDbTextStyleTableRecord
2
Standard
70
0
40
0
41
1
50
0
71
0
42
1
3
txt
4

0
ENDTAB
0
TABLE
2
VIEW
5
6
330
0
100
AcDbSymbolTable
70
0
0
ENDTAB
0
TABLE
2
UCS
5
7
330
0
100
AcDbSymbolTable
70
0
0
ENDTAB
0
TABLE
2
APPID
5
9
330
0
100
AcDbSymbolTable
70
1
0
APPID
5
12
330
9
100
AcDbSymbolTableRecord
100
AcDbRegAppTableRecord
2
ACAD
70
0
0
ENDTAB
0
TABLE
2
DIMSTYLE
5
A
330
0
100
AcDbSymbolTable
70
1
100
AcDbDimStyleTable
71
1
0
DIMSTYLE
105
4D
330
A
100
AcDbSymbolTableRecord
100
AcDbDimStyleTableRecord
2
Standard
70
0
40
1
41
1.5
42
0.5
43
0.38
44
0.9
45
0
46
0
47
0
48
0
140
1.5
141
0.09
142
0
143
25.4
144
1
145
0
146
1
147
0.5
148
0
71
0
72
0
73
0
74
1
75
0
76
0
77
0
78
0
79
0
170
0
171
2
172
0
173
0
174
0
175
0
176
0
177
0
178
0
179
0
271
4
272
4
273
2
274
2
275
0
276
0
277
2
278
46
279
0
280
0
281
0
282
0
283
1
284
0
285
0
286
0
288
0
289
3
340
Standard
341

371
-2
372
-2
0
ENDTAB
0
TABLE
2
BLOCK_RECORD
5
1
330
0
100
AcDbSymbolTable
70
2
0
BLOCK_RECORD
5
1F
330
1
100
AcDbSymbolTableRecord
100
AcDbBlockTableRecord
2
*Model_Space
70
0
280
1
281
0
0
BLOCK_RECORD
5
1E
330
1
100
AcDbSymbolTableRecord
100
AcDbBlockTableRecord
2
*Paper_Space
70
0
280
1
281
0
0
BLOCK_RECORD
5
4E
330
1
100
AcDbSymbolTableRecord
100
AcDbBlockTableRecord
2
*D22
70
0
280
1
281
0
0
BLOCK_RECORD
5
51
330
1
100
AcDbSymbolTableRecord
100
AcDbBlockTableRecord
2
*D14
70
0
280
1
281
0
0
BLOCK_RECORD
5
54
330
1
100
AcDbSymbolTableRecord
100
AcDbBlockTableRecord
2
*D38
70
0
280
1
281
0
0
BLOCK_RECORD
5
57
330
1
100
AcDbSymbolTableRecord
100
AcDbBlockTableRecord
2
*D17
70
0
280
1
281
0
0
BLOCK_RECORD
5
5A
330
1
100
AcDbSymbolTableRecord
100
AcDbBlockTableRecord
2
*D53
70
0
280
1
281
0
0
BLOCK_RECORD
5
5D
330
1
100
AcDbSymbolTableRecord
100
AcDbBlockTableRecord
2
*D8
70
0
280
1
281
0
0
BLOCK_RECORD
5
60
330
1
100
AcDbSymbolTableRecord
100
AcDbBlockTableRecord
2
*D43
70
0
280
1
281
0
0
BLOCK_RECORD
5
63
330
1
100
AcDbSymbolTableRecord
100
AcDbBlockTableRecord
2
*D49
70
0
280
1
281
0
0
BLOCK_RECORD
5
66
330
1
100
AcDbSymbolTableRecord
100
AcDbBlockTableRecord
2
*D50
70
0
280
1
281
0
0
BLOCK_RECORD
5
69
330
1
100
AcDbSymbolTableRecord
100
AcDbBlockTableRecord
2
*D51
70
0
280
1
281
0
0
BLOCK_RECORD
5
6C
330
1
100
AcDbSymbolTableRecord
100
AcDbBlockTableRecord
2
*D5
70
0
280
1
281
0
0
BLOCK_RECORD
5
6F
330
1
100
AcDbSymbolTableRecord
100
AcDbBlockTableRecord
2
*D23
70
0
280
1
281
0
0
BLOCK_RECORD
5
72
330
1
100
AcDbSymbolTableRecord
100
AcDbBlockTableRecord
2
*D9
70
0
280
1
281
0
0
BLOCK_RECORD
5
75
330
1
100
AcDbSymbolTableRecord
100
AcDbBlockTableRecord
2
*D10
70
0
280
1
281
0
0
BLOCK_RECORD
5
78
330
1
100
AcDbSymbolTableRecord
100
AcDbBlockTableRecord
2
*D16
70
0
280
1
281
0
0
BLOCK_RECORD
5
7B
330
1
100
AcDbSymbolTableRecord
100
AcDbBlockTableRecord
2
*D25
70
0
280
1
281
0
0
BLOCK_RECORD
5
7E
330
1
100
AcDbSymbolTableRecord
100
AcDbBlockTableRecord
2
*D42
70
0
280
1
281
0
0
BLOCK_RECORD
5
81
330
1
100
AcDbSymbolTableRecord
100
AcDbBlockTableRecord
2
*D46
70
0
280
1
281
0
0
BLOCK_RECORD
5
84
330
1
100
AcDbSymbolTableRecord
100
AcDbBlockTableRecord
2
*D37
70
0
280
1
281
0
0
BLOCK_RECORD
5
87
330
1
100
AcDbSymbolTableRecord
100
AcDbBlockTableRecord
2
*D21
70
0
280
1
281
0
0
BLOCK_RECORD
5
8A
330
1
100
AcDbSymbolTableRecord
100
AcDbBlockTableRecord
2
*D3
70
0
280
1
281
0
0
BLOCK_RECORD
5
8D
330
1
100
AcDbSymbolTableRecord
100
AcDbBlockTableRecord
2
*D39
70
0
280
1
281
0
0
BLOCK_RECORD
5
90
330
1
100
AcDbSymbolTableRecord
100
AcDbBlockTableRecord
2
*D45
70
0
280
1
281
0
0
BLOCK_RECORD
5
93
330
1
100
AcDbSymbolTableRecord
100
AcDbBlockTableRecord
2
*D52
70
0
280
1
281
0
0
BLOCK_RECORD
5
96
330
1
100
AcDbSymbolTableRecord
100
AcDbBlockTableRecord
2
*D15
70
0
280
1
281
0
0
BLOCK_RECORD
5
99
330
1
100
AcDbSymbolTableRecord
100
AcDbBlockTableRecord
2
*D55
70
0
280
1
281
0
0
BLOCK_RECORD
5
9C
330
1
100
AcDbSymbolTableRecord
100
AcDbBlockTableRecord
2
*D47
70
0
280
1
281
0
0
BLOCK_RECORD
5
9F
330
1
100
AcDbSymbolTableRecord
100
AcDbBlockTableRecord
2
*D11
70
0
280
1
281
0
0
BLOCK_RECORD
5
A2
330
1
100
AcDbSymbolTableRecord
100
AcDbBlockTableRecord
2
*D27
70
0
280
1
281
0
0
BLOCK_RECORD
5
A5
330
1
100
AcDbSymbolTableRecord
100
AcDbBlockTableRecord
2
*D1
70
0
280
1
281
0
0
BLOCK_RECORD
5
A8
330
1
100
AcDbSymbolTableRecord
100
AcDbBlockTableRecord
2
*D6
70
0
280
1
281
0
0
BLOCK_RECORD
5
AB
330
1
100
AcDbSymbolTableRecord
100
AcDbBlockTableRecord
2
*D40
70
0
280
1
281
0
0
BLOCK_RECORD
5
AE
330
1
100
AcDbSymbolTableRecord
100
AcDbBlockTableRecord
2
*D12
70
0
280
1
281
0
0
BLOCK_RECORD
5
B1
330
1
100
AcDbSymbolTableRecord
100
AcDbBlockTableRecord
2
*D48
70
0
280
1
281
0
0
BLOCK_RECORD
5
B4
330
1
100
AcDbSymbolTableRecord
100
AcDbBlockTableRecord
2
*D2
70
0
280
1
281
0
0
BLOCK_RECORD
5
B7
330
1
100
AcDbSymbolTableRecord
100
AcDbBlockTableRecord
2
*D7
70
0
280
1
281
0
0
BLOCK_RECORD
5
BA
330
1
100
AcDbSymbolTableRecord
100
AcDbBlockTableRecord
2
*D26
70
0
280
1
281
0
0
BLOCK_RECORD
5
BD
330
1
100
AcDbSymbolTableRecord
100
AcDbBlockTableRecord
2
*D4
70
0
280
1
281
0
0
BLOCK_RECORD
5
C0
330
1
100
AcDbSymbolTableRecord
100
AcDbBlockTableRecord
2
*D24
70
0
280
1
281
0
0
BLOCK_RECORD
5
C3
330
1
100
AcDbSymbolTableRecord
100
AcDbBlockTableRecord
2
*D41
70
0
280
1
281
0
0
BLOCK_RECORD
5
C6
330
1
100
AcDbSymbolTableRecord
100
AcDbBlockTableRecord
2
*D13
70
0
280
1
281
0
0
BLOCK_RECORD
5
C9
330
1
100
AcDbSymbolTableRecord
100
AcDbBlockTableRecord
2
*D30
70
0
280
1
281
0
0
BLOCK_RECORD
5
CC
330
1
100
AcDbSymbolTableRecord
100
AcDbBlockTableRecord
2
*D20
70
0
280
1
281
0
0
BLOCK_RECORD
5
CF
330
1
100
AcDbSymbolTableRecord
100
AcDbBlockTableRecord
2
*D32
70
0
280
1
281
0
0
BLOCK_RECORD
5
D2
330
1
100
AcDbSymbolTableRecord
100
AcDbBlockTableRecord
2
*D28
70
0
280
1
281
0
0
BLOCK_RECORD
5
D5
330
1
100
AcDbSymbolTableRecord
100
AcDbBlockTableRecord
2
*D19
70
0
280
1
281
0
0
BLOCK_RECORD
5
D8
330
1
100
AcDbSymbolTableRecord
100
AcDbBlockTableRecord
2
*D54
70
0
280
1
281
0
0
BLOCK_RECORD
5
DB
330
1
100
AcDbSymbolTableRecord
100
AcDbBlockTableRecord
2
*D34
70
0
280
1
281
0
0
BLOCK_RECORD
5
DE
330
1
100
AcDbSymbolTableRecord
100
AcDbBlockTableRecord
2
*D33
70
0
280
1
281
0
0
BLOCK_RECORD
5
E1
330
1
100
AcDbSymbolTableRecord
100
AcDbBlockTableRecord
2
*D44
70
0
280
1
281
0
0
BLOCK_RECORD
5
E4
330
1
100
AcDbSymbolTableRecord
100
AcDbBlockTableRecord
2
*D35
70
0
280
1
281
0
0
BLOCK_RECORD
5
E7
330
1
100
AcDbSymbolTableRecord
100
AcDbBlockTableRecord
2
*D31
70
0
280
1
281
0
0
BLOCK_RECORD
5
EA
330
1
100
AcDbSymbolTableRecord
100
AcDbBlockTableRecord
2
*D18
70
0
280
1
281
0
0
BLOCK_RECORD
5
ED
330
1
100
AcDbSymbolTableRecord
100
AcDbBlockTableRecord
2
*D29
70
0
280
1
281
0
0
BLOCK_RECORD
5
F0
330
1
100
AcDbSymbolTableRecord
100
AcDbBlockTableRecord
2
*D36
70
0
280
1
281
0
0
ENDTAB
0
ENDSEC
0
SECTION
2
BLOCKS
0
BLOCK
5
20
330
1F
100
AcDbEntity
8
0
100
AcDbBlockBegin
2
*Model_Space
70
0
10
0
20
0
30
0
3
*Model_Space
1

0
ENDBLK
5
21
330
1F
100
AcDbEntity
8
0
100
AcDbBlockEnd
0
BLOCK
5
1C
330
1B
100
AcDbEntity
8
0
100
AcDbBlockBegin
2
*Paper_Space
70
0
10
0
20
0
30
0
3
*Paper_Space
1

0
ENDBLK
5
1D
330
1F
100
AcDbEntity
8
0
100
AcDbBlockEnd
0
BLOCK
5
4F
330
4E
100
AcDbEntity
8
0
100
AcDbBlockBegin
2
*D22
70
1
10
0
20
0
3
*D22
1

0
LINE
5
F3
100
AcDbEntity
8
Dimension
6
CONTINUOUS
62
7
370
0
100
AcDbLine
10
-4
20
46.75
11
-4
21
55.25
0
SOLID
5
F4
100
AcDbEntity
8
Dimension
6
CONTINUOUS
62
7
370
0
100
AcDbTrace
10
-4
20
46.75
30
0
11
-4.24977079466
21
48.25
31
0
12
-3.75022920534
22
48.25
32
0
13
-3.75022920534
23
48.25
33
0
0
SOLID
5
F5
100
AcDbEntity
8
Dimension
6
CONTINUOUS
62
7
370
0
100
AcDbTrace
10
-4
20
55.25
30
0
11
-3.75022920534
21
53.75
31
0
12
-4.24977079466
22
53.75
32
0
13
-4.24977079466
23
53.75
33
0
0
MTEXT
5
F6
100
AcDbEntity
8
Dimension
6
CONTINUOUS
62
7
370
0
100
AcDbMText
10
-5.25
20
51
30
0
40
1.5
41
4.95833333333
71
5
72
1
1
8 1/2
7
standard
210
0
220
0
230
1
50
90
73
2
44
1
0
LINE
5
F7
100
AcDbEntity
8
Dimension
6
CONTINUOUS
62
7
370
0
100
AcDbLine
10
0.25
20
46.75
11
-4.9
21
46.75
0
LINE
5
F8
100
AcDbEntity
8
Dimension
6
CONTINUOUS
62
7
370
0
100
AcDbLine
10
0.25
20
55.25
11
-4.9
21
55.25
0
ENDBLK
5
50
330
4E
100
AcDbEntity
8
0
100
AcDbBlockEnd
0
BLOCK
5
52
330
51
100
AcDbEntity
8
0
100
AcDbBlockBegin
2
*D14
70
1
10
0
20
0
3
*D14
1

0
LINE
5
F9
100
AcDbEntity
8
Lumber
6
CONTINUOUS
62
7
370
0
100
AcDbLine
10
30.4488823989
20
107.5
11
30.4488823989
21
102
0
SOLID
5
FA
100
AcDbEntity
8
Lumber
6
CONTINUOUS
62
7
370
0
100
AcDbTrace
10
30.4488823989
20
107.5
30
0
11
30.6986531936
21
106
31
0
12
30.1991116042
22
106
32
0
13
30.1991116042
23
106
33
0
0
SOLID
5
FB
100
AcDbEntity
8
Lumber
6
CONTINUOUS
62
7
370
0
100
AcDbTrace
10
30.4488823989
20
102
30
0
11
30.1991116042
21
103.5
31
0
12
30.6986531936
22
103.5
32
0
13
30.6986531936
23
103.5
33
0
0
MTEXT
5
FC
100
AcDbEntity
8
Lumber
6
CONTINUOUS
62
7
370
0
100
AcDbMText
10
29.1988823989
20
104.75
30
0
40
1.5
41
4.95833333333
71
5
72
1
1
5 1/2
7
standard
210
0
220
0
230
1
50
90
73
2
44
1
0
LINE
5
FD
100
AcDbEntity
8
Lumber
6
CONTINUOUS
62
7
370
0
100
AcDbLine
10
25.5
20
107.5
11
31.3488823989
21
107.5
0
LINE
5
FE
100
AcDbEntity
8
Lumber
6
CONTINUOUS
62
7
370
0
100
AcDbLine
10
25.5
20
102
11
31.3488823989
21
102
0
ENDBLK
5
53
330
51
100
AcDbEntity
8
0
100
AcDbBlockEnd
0
BLOCK
5
55
330
54
100
AcDbEntity
8
0
100
AcDbBlockBegin
2
*D38
70
1
10
0
20
0
3
*D38
1

0
LINE
5
FF
100
AcDbEntity
8
Dimension
6
CONTINUOUS
62
7
370
0
100
AcDbLine
10
54
20
33.0006943379
11
46
21
33.0006943379
0
SOLID
5
100
100
AcDbEntity
8
Dimension
6
CONTINUOUS
62
7
370
0
100
AcDbTrace
10
51
20
33.0006943379
30
0
11
52.5
21
33.2504651326
31
0
12
52.5
22
32.7509235432
32
0
13
52.5
23
32.7509235432
33
0
0
SOLID
5
101
100
AcDbEntity
8
Dimension
6
CONTINUOUS
62
7
370
0
100
AcDbTrace
10
49
20
33.0006943379
30
0
11
47.5
21
32.7509235432
31
0
12
47.5
22
33.2504651326
32
0
13
47.5
23
33.2504651326
33
0
0
MTEXT
5
102
100
AcDbEntity
8
Dimension
6
CONTINUOUS
62
7
370
0
100
AcDbMText
10
50
20
34.2506943379
30
0
40
1.5
41
0.666666666667
71
5
72
1
1
2
7
standard
210
0
220
0
230
1
50
360
73
2
44
1
0
LINE
5
103
100
AcDbEntity
8
Dimension
6
CONTINUOUS
62
7
370
0
100
AcDbLine
10
51
20
38.25
11
51
21
32.1006943379
0
LINE
5
104
100
AcDbEntity
8
Dimension
6
CONTINUOUS
62
7
370
0
100
AcDbLine
10
49
20
38.25
11
49
21
32.1006943379
0
ENDBLK
5
56
330
54
100
AcDbEntity
8
0
100
AcDbBlockEnd
0
BLOCK
5
58
330
57
100
AcDbEntity
8
0
100
AcDbBlockBegin
2
*D17
70
1
10
0
20
0
3
*D17
1

0
LINE
5
105
100
AcDbEntity
8
Dimension
6
CONTINUOUS
62
7
370
0
100
AcDbLine
10
-4
20
6.75
11
-4
21
18.25
0
SOLID
5
106
100
AcDbEntity
8
Dimension
6
CONTINUOUS
62
7
370
0
100
AcDbTrace
10
-4
20
6.75
30
0
11
-4.24977079466
21
8.25
31
0
12
-3.75022920534
22
8.25
32
0
13
-3.75022920534
23
8.25
33
0
0
SOLID
5
107
100
AcDbEntity
8
Dimension
6
CONTINUOUS
62
7
370
0
100
AcDbTrace
10
-4
20
18.25
30
0
11
-3.75022920534
21
16.75
31
0
12
-4.24977079466
22
16.75
32
0
13
-4.24977079466
23
16.75
33
0
0
MTEXT
5
108
100
AcDbEntity
8
Dimension
6
CONTINUOUS
62
7
370
0
100
AcDbMText
10
-5.25
20
12.5
30
0
40
1.5
41
5.45833333333
71
5
72
1
1
11 1/2
7
standard
210
0
220
0
230
1
50
90
73
2
44
1
0
LINE
5
109
100
AcDbEntity
8
Dimension
6
CONTINUOUS
62
7
370
0
100
AcDbLine
10
0.25
20
6.75
11
-4.9
21
6.75
0
LINE
5
10A
100
AcDbEntity
8
Dimension
6
CONTINUOUS
62
7
370
0
100
AcDbLine
10
0.25
20
18.25
11
-4.9
21
18.25
0
ENDBLK
5
59
330
57
100
AcDbEntity
8
0
100
AcDbBlockEnd
0
BLOCK
5
5B
330
5A
100
AcDbEntity
8
0
100
AcDbBlockBegin
2
*D53
70
1
10
0
20
0
3
*D53
1

0
LINE
5
10B
100
AcDbEntity
8
Dimension
6
CONTINUOUS
62
7
370
0
100
AcDbLine
10
52.25
20
20.2572418989
11
59.25
21
20.2572418989
0
SOLID
5
10C
100
AcDbEntity
8
Dimension
6
CONTINUOUS
62
7
370
0
100
AcDbTrace
10
52.25
20
20.2572418989
30
0
11
53.75
21
20.5070126936
31
0
12
53.75
22
20.0074711043
32
0
13
53.75
23
20.0074711043
33
0
0
SOLID
5
10D
100
AcDbEntity
8
Dimension
6
CONTINUOUS
62
7
370
0
100
AcDbTrace
10
59.25
20
20.2572418989
30
0
11
57.75
21
20.0074711043
31
0
12
57.75
22
20.5070126936
32
0
13
57.75
23
20.5070126936
33
0
0
MTEXT
5
10E
100
AcDbEntity
8
Dimension
6
CONTINUOUS
62
7
370
0
100
AcDbMText
10
55.75
20
21.5072418989
30
0
40
1.5
41
0.666666666667
71
5
72
1
1
7
7
standard
210
0
220
0
230
1
50
0
73
2
44
1
0
LINE
5
10F
100
AcDbEntity
8
Dimension
6
CONTINUOUS
62
7
370
0
100
AcDbLine
10
52.25
20
13
11
52.25
21
21.1572418989
0
LINE
5
110
100
AcDbEntity
8
Dimension
6
CONTINUOUS
62
7
370
0
100
AcDbLine
10
59.25
20
19
11
59.25
21
21.1572418989
0
ENDBLK
5
5C
330
5A
100
AcDbEntity
8
0
100
AcDbBlockEnd
0
BLOCK
5
5E
330
5D
100
AcDbEntity
8
0
100
AcDbBlockBegin
2
*D8
70
1
10
0
20
0
3
*D8
1

0
LINE
5
111
100
AcDbEntity
8
Dimension
6
CONTINUOUS
62
7
370
0
100
AcDbLine
10
56
20
-4.8307290385
11
60
21
-4.8307290385
0
SOLID
5
112
100
AcDbEntity
8
Dimension
6
CONTINUOUS
62
7
370
0
100
AcDbTrace
10
56
20
-4.8307290385
30
0
11
57.5
21
-4.58095824383
31
0
12
57.5
22
-5.08049983316
32
0
13
57.5
23
-5.08049983316
33
0
0
SOLID
5
113
100
AcDbEntity
8
Dimension
6
CONTINUOUS
62
7
370
0
100
AcDbTrace
10
60
20
-4.8307290385
30
0
11
58.5
21
-5.08049983316
31
0
12
58.5
22
-4.58095824383
32
0
13
58.5
23
-4.58095824383
33
0
0
MTEXT
5
114
100
AcDbEntity
8
Dimension
6
CONTINUOUS
62
7
370
0
100
AcDbMText
10
62.8125
20
-3.5807290385
30
0
40
1.5
41
4.625
71
5
72
1
1
2X 4
7
standard
210
0
220
0
230
1
50
0
73
2
44
1
0
LINE
5
115
100
AcDbEntity
8
Dimension
6
CONTINUOUS
62
7
370
0
100
AcDbLine
10
56
20
-0.5
11
56
21
-5.7307290385
0
LINE
5
116
100
AcDbEntity
8
Dimension
6
CONTINUOUS
62
7
370
0
100
AcDbLine
10
60
20
-0.5
11
60
21
-5.7307290385
0
ENDBLK
5
5F
330
5D
100
AcDbEntity
8
0
100
AcDbBlockEnd
0
BLOCK
5
61
330
60
100
AcDbEntity
8
0
100
AcDbBlockBegin
2
*D43
70
1
10
0
20
0
3
*D43
1

0
LINE
5
117
100
AcDbEntity
8
Dimension
6
CONTINUOUS
62
7
370
0
100
AcDbLine
10
49.25
20
60.5344539807
11
59.25
21
60.5344539807
0
SOLID
5
118
100
AcDbEntity
8
Dimension
6
CONTINUOUS
62
7
370
0
100
AcDbTrace
10
49.25
20
60.5344539807
30
0
11
50.75
21
60.7842247754
31
0
12
50.75
22
60.2846831861
32
0
13
50.75
23
60.2846831861
33
0
0
SOLID
5
119
100
AcDbEntity
8
Dimension
6
CONTINUOUS
62
7
370
0
100
AcDbTrace
10
59.25
20
60.5344539807
30
0
11
57.75
21
60.2846831861
31
0
12
57.75
22
60.7842247754
32
0
13
57.75
23
60.7842247754
33
0
0
MTEXT
5
11A
100
AcDbEntity
8
Dimension
6
CONTINUOUS
62
7
370
0
100
AcDbMText
10
54.25
20
61.7844539807
30
0
40
1.5
41
5.29166666667
71
5
72
1
1
6X 10
7
standard
210
0
220
0
230
1
50
0
73
2
44
1
0
LINE
5
11B
100
AcDbEntity
8
Dimension
6
CONTINUOUS
62
7
370
0
100
AcDbLine
10
49.25
20
64
11
49.25
21
59.6344539807
0
LINE
5
11C
100
AcDbEntity
8
Dimension
6
CONTINUOUS
62
7
370
0
100
AcDbLine
10
59.25
20
64
11
59.25
21
59.6344539807
0
ENDBLK
5
62
330
60
100
AcDbEntity
8
0
100
AcDbBlockEnd
0
BLOCK
5
64
330
63
100
AcDbEntity
8
0
100
AcDbBlockBegin
2
*D49
70
1
10
0
20
0
3
*D49
1

0
LINE
5
11D
100
AcDbEntity
8
Dimension
6
CONTINUOUS
62
7
370
0
100
AcDbLine
10
10.75
20
60.0417316809
11
14.75
21
60.0417316809
0
SOLID
5
11E
100
AcDbEntity
8
Dimension
6
CONTINUOUS
62
7
370
0
100
AcDbTrace
10
10.75
20
60.0417316809
30
0
11
12.25
21
60.2915024756
31
0
12
12.25
22
59.7919608862
32
0
13
12.25
23
59.7919608862
33
0
0
SOLID
5
11F
100
AcDbEntity
8
Dimension
6
CONTINUOUS
62
7
370
0
100
AcDbTrace
10
14.75
20
60.0417316809
30
0
11
13.25
21
59.7919608862
31
0
12
13.25
22
60.2915024756
32
0
13
13.25
23
60.2915024756
33
0
0
MTEXT
5
120
100
AcDbEntity
8
Dimension
6
CONTINUOUS
62
7
370
0
100
AcDbMText
10
12.75
20
61.2917316809
30
0
40
1.5
41
0.833333333333
71
5
72
1
1
4
7
standard
210
0
220
0
230
1
50
0
73
2
44
1
0
LINE
5
121
100
AcDbEntity
8
Dimension
6
CONTINUOUS
62
7
370
0
100
AcDbLine
10
10.75
20
64.375
11
10.75
21
59.1417316809
0
LINE
5
122
100
AcDbEntity
8
Dimension
6
CONTINUOUS
62
7
370
0
100
AcDbLine
10
14.75
20
64.375
11
14.75
21
59.1417316809
0
ENDBLK
5
65
330
63
100
AcDbEntity
8
0
100
AcDbBlockEnd
0
BLOCK
5
67
330
66
100
AcDbEntity
8
0
100
AcDbBlockBegin
2
*D50
70
1
10
0
20
0
3
*D50
1

0
LINE
5
123
100
AcDbEntity
8
Dimension
6
CONTINUOUS
62
7
370
0
100
AcDbLine
10
6.75
20
60.0417316809
11
10.75
21
60.0417316809
0
SOLID
5
124
100
AcDbEntity
8
Dimension
6
CONTINUOUS
62
7
370
0
100
AcDbTrace
10
6.75
20
60.0417316809
30
0
11
8.25
21
60.2915024756
31
0
12
8.25
22
59.7919608862
32
0
13
8.25
23
59.7919608862
33
0
0
SOLID
5
125
100
AcDbEntity
8
Dimension
6
CONTINUOUS
62
7
370
0
100
AcDbTrace
10
10.75
20
60.0417316809
30
0
11
9.25
21
59.7919608862
31
0
12
9.25
22
60.2915024756
32
0
13
9.25
23
60.2915024756
33
0
0
MTEXT
5
126
100
AcDbEntity
8
Dimension
6
CONTINUOUS
62
7
370
0
100
AcDbMText
10
8.75
20
61.2917316809
30
0
40
1.5
41
0.833333333333
71
5
72
1
1
4
7
standard
210
0
220
0
230
1
50
0
73
2
44
1
0
LINE
5
127
100
AcDbEntity
8
Dimension
6
CONTINUOUS
62
7
370
0
100
AcDbLine
10
6.75
20
64.375
11
6.75
21
59.1417316809
0
LINE
5
128
100
AcDbEntity
8
Dimension
6
CONTINUOUS
62
7
370
0
100
AcDbLine
10
10.75
20
64.375
11
10.75
21
59.1417316809
0
ENDBLK
5
68
330
66
100
AcDbEntity
8
0
100
AcDbBlockEnd
0
BLOCK
5
6A
330
69
100
AcDbEntity
8
0
100
AcDbBlockBegin
2
*D51
70
1
10
0
20
0
3
*D51
1

0
LINE
5
129
100
AcDbEntity
8
Dimension
6
CONTINUOUS
62
7
370
0
100
AcDbLine
10
14.75
20
60.0417316809
11
18.75
21
60.0417316809
0
SOLID
5
12A
100
AcDbEntity
8
Dimension
6
CONTINUOUS
62
7
370
0
100
AcDbTrace
10
14.75
20
60.0417316809
30
0
11
16.25
21
60.2915024756
31
0
12
16.25
22
59.7919608862
32
0
13
16.25
23
59.7919608862
33
0
0
SOLID
5
12B
100
AcDbEntity
8
Dimension
6
CONTINUOUS
62
7
370
0
100
AcDbTrace
10
18.75
20
60.0417316809
30
0
11
17.25
21
59.7919608862
31
0
12
17.25
22
60.2915024756
32
0
13
17.25
23
60.2915024756
33
0
0
MTEXT
5
12C
100
AcDbEntity
8
Dimension
6
CONTINUOUS
62
7
370
0
100
AcDbMText
10
16.75
20
61.2917316809
30
0
40
1.5
41
0.833333333333
71
5
72
1
1
4
7
standard
210
0
220
0
230
1
50
0
73
2
44
1
0
LINE
5
12D
100
AcDbEntity
8
Dimension
6
CONTINUOUS
62
7
370
0
100
AcDbLine
10
14.75
20
64.375
11
14.75
21
59.1417316809
0
LINE
5
12E
100
AcDbEntity
8
Dimension
6
CONTINUOUS
62
7
370
0
100
AcDbLine
10
18.75
20
64.375
11
18.75
21
59.1417316809
0
ENDBLK
5
6B
330
69
100
AcDbEntity
8
0
100
AcDbBlockEnd
0
BLOCK
5
6D
330
6C
100
AcDbEntity
8
0
100
AcDbBlockBegin
2
*D5
70
1
10
0
20
0
3
*D5
1

0
LINE
5
12F
100
AcDbEntity
8
Dimension
6
CONTINUOUS
62
7
370
0
100
AcDbLine
10
60
20
-9.46318188511
11
47.5
21
-9.46318188511
0
SOLID
5
130
100
AcDbEntity
8
Dimension
6
CONTINUOUS
62
7
370
0
100
AcDbTrace
10
60
20
-9.46318188511
30
0
11
58.5
21
-9.71295267978
31
0
12
58.5
22
-9.21341109045
32
0
13
58.5
23
-9.21341109045
33
0
0
SOLID
5
131
100
AcDbEntity
8
Dimension
6
CONTINUOUS
62
7
370
0
100
AcDbTrace
10
47.5
20
-9.46318188511
30
0
11
49
21
-9.21341109045
31
0
12
49
22
-9.71295267978
32
0
13
49
23
-9.71295267978
33
0
0
MTEXT
5
132
100
AcDbEntity
8
Dimension
6
CONTINUOUS
62
7
370
0
100
AcDbMText
10
53.75
20
-8.21318188511
30
0
40
1.5
41
5.79166666667
71
5
72
1
1
12 1/2
7
standard
210
0
220
0
230
1
50
360
73
2
44
1
0
LINE
5
133
100
AcDbEntity
8
Dimension
6
CONTINUOUS
62
7
370
0
100
AcDbLine
10
60
20
-0.5
11
60
21
-10.3631818851
0
LINE
5
134
100
AcDbEntity
8
Dimension
6
CONTINUOUS
62
7
370
0
100
AcDbLine
10
47.5
20
5.5
11
47.5
21
-10.3631818851
0
ENDBLK
5
6E
330
6C
100
AcDbEntity
8
0
100
AcDbBlockEnd
0
BLOCK
5
70
330
6F
100
AcDbEntity
8
0
100
AcDbBlockBegin
2
*D23
70
1
10
0
20
0
3
*D23
1

0
LINE
5
135
100
AcDbEntity
8
Dimension
6
CONTINUOUS
62
7
370
0
100
AcDbLine
10
-8
20
6.75
11
-8
21
65.25
0
SOLID
5
136
100
AcDbEntity
8
Dimension
6
CONTINUOUS
62
7
370
0
100
AcDbTrace
10
-8
20
6.75
30
0
11
-8.24977079466
21
8.25
31
0
12
-7.75022920534
22
8.25
32
0
13
-7.75022920534
23
8.25
33
0
0
SOLID
5
137
100
AcDbEntity
8
Dimension
6
CONTINUOUS
62
7
370
0
100
AcDbTrace
10
-8
20
65.25
30
0
11
-7.75022920534
21
63.75
31
0
12
-8.24977079466
22
63.75
32
0
13
-8.24977079466
23
63.75
33
0
0
MTEXT
5
138
100
AcDbEntity
8
Dimension
6
CONTINUOUS
62
7
370
0
100
AcDbMText
10
-9.25
20
36
30
0
40
1.5
41
6.125
71
5
72
1
1
58 1/2
7
standard
210
0
220
0
230
1
50
90
73
2
44
1
0
LINE
5
139
100
AcDbEntity
8
Dimension
6
CONTINUOUS
62
7
370
0
100
AcDbLine
10
0.25
20
6.75
11
-8.9
21
6.75
0
LINE
5
13A
100
AcDbEntity
8
Dimension
6
CONTINUOUS
62
7
370
0
100
AcDbLine
10
0.25
20
65.25
11
-8.9
21
65.25
0
ENDBLK
5
71
330
6F
100
AcDbEntity
8
0
100
AcDbBlockEnd
0
BLOCK
5
73
330
72
100
AcDbEntity
8
0
100
AcDbBlockBegin
2
*D9
70
1
10
0
20
0
3
*D9
1

0
LINE
5
13B
100
AcDbEntity
8
Lumber
6
CONTINUOUS
62
7
370
0
100
AcDbLine
10
52.75
20
15.0633675661
11
47.25
21
15.0633675661
0
SOLID
5
13C
100
AcDbEntity
8
Lumber
6
CONTINUOUS
62
7
370
0
100
AcDbTrace
10
52.75
20
15.0633675661
30
0
11
51.25
21
14.8135967714
31
0
12
51.25
22
15.3131383607
32
0
13
51.25
23
15.3131383607
33
0
0
SOLID
5
13D
100
AcDbEntity
8
Lumber
6
CONTINUOUS
62
7
370
0
100
AcDbTrace
10
47.25
20
15.0633675661
30
0
11
48.75
21
15.3131383607
31
0
12
48.75
22
14.8135967714
32
0
13
48.75
23
14.8135967714
33
0
0
MTEXT
5
13E
100
AcDbEntity
8
Lumber
6
CONTINUOUS
62
7
370
0
100
AcDbMText
10
50
20
16.3133675661
30
0
40
1.5
41
4.95833333333
71
5
72
1
1
5 1/2
7
standard
210
0
220
0
230
1
50
360
73
2
44
1
0
LINE
5
13F
100
AcDbEntity
8
Lumber
6
CONTINUOUS
62
7
370
0
100
AcDbLine
10
52.75
20
0.5
11
52.75
21
15.9633675661
0
LINE
5
140
100
AcDbEntity
8
Lumber
6
CONTINUOUS
62
7
370
0
100
AcDbLine
10
47.25
20
0.5
11
47.25
21
15.9633675661
0
ENDBLK
5
74
330
72
100
AcDbEntity
8
0
100
AcDbBlockEnd
0
BLOCK
5
76
330
75
100
AcDbEntity
8
0
100
AcDbBlockBegin
2
*D10
70
1
10
0
20
0
3
*D10
1

0
LINE
5
141
100
AcDbEntity
8
Lumber
6
CONTINUOUS
62
7
370
0
100
AcDbLine
10
20
20
12.2648453728
11
25.5
21
12.2648453728
0
SOLID
5
142
100
AcDbEntity
8
Lumber
6
CONTINUOUS
62
7
370
0
100
AcDbTrace
10
20
20
12.2648453728
30
0
11
21.5
21
12.5146161675
31
0
12
21.5
22
12.0150745781
32
0
13
21.5
23
12.0150745781
33
0
0
SOLID
5
143
100
AcDbEntity
8
Lumber
6
CONTINUOUS
62
7
370
0
100
AcDbTrace
10
25.5
20
12.2648453728
30
0
11
24
21
12.0150745781
31
0
12
24
22
12.5146161675
32
0
13
24
23
12.5146161675
33
0
0
MTEXT
5
144
100
AcDbEntity
8
Lumber
6
CONTINUOUS
62
7
370
0
100
AcDbMText
10
22.75
20
13.5148453728
30
0
40
1.5
41
4.95833333333
71
5
72
1
1
5 1/2
7
standard
210
0
220
0
230
1
50
0
73
2
44
1
0
LINE
5
145
100
AcDbEntity
8
Lumber
6
CONTINUOUS
62
7
370
0
100
AcDbLine
10
20
20
0.5
11
20
21
13.1648453728
0
LINE
5
146
100
AcDbEntity
8
Lumber
6
CONTINUOUS
62
7
370
0
100
AcDbLine
10
25.5
20
0.5
11
25.5
21
13.1648453728
0
ENDBLK
5
77
330
75
100
AcDbEntity
8
0
100
AcDbBlockEnd
0
BLOCK
5
79
330
78
100
AcDbEntity
8
0
100
AcDbBlockBegin
2
*D16
70
1
10
0
20
0
3
*D16
1

0
LINE
5
147
100
AcDbEntity
8
Dimension
6
CONTINUOUS
62
7
370
0
100
AcDbLine
10
41.2471543811
20
0
11
41.2471543811
21
9.5
0
SOLID
5
148
100
AcDbEntity
8
Dimension
6
CONTINUOUS
62
7
370
0
100
AcDbTrace
10
41.2471543811
20
0
30
0
11
40.9973835864
21
1.5
31
0
12
41.4969251757
22
1.5
32
0
13
41.4969251757
23
1.5
33
0
0
SOLID
5
149
100
AcDbEntity
8
Dimension
6
CONTINUOUS
62
7
370
0
100
AcDbTrace
10
41.2471543811
20
9.5
30
0
11
41.4969251757
21
8
31
0
12
40.9973835864
22
8
32
0
13
40.9973835864
23
8
33
0
0
MTEXT
5
14A
100
AcDbEntity
8
Dimension
6
CONTINUOUS
62
7
370
0
100
AcDbMText
10
39.9971543811
20
4.75
30
0
40
1.5
41
4.95833333333
71
5
72
1
1
9 1/2
7
standard
210
0
220
0
230
1
50
90
73
2
44
1
0
LINE
5
14B
100
AcDbEntity
8
Dimension
6
CONTINUOUS
62
7
370
0
100
AcDbLine
10
44
20
-2.38767660043e-16
11
40.3471543811
21
1.10218211923e-16
0
LINE
5
14C
100
AcDbEntity
8
Dimension
6
CONTINUOUS
62
7
370
0
100
AcDbLine
10
44
20
9.5
11
40.3471543811
21
9.5
0
ENDBLK
5
7A
330
78
100
AcDbEntity
8
0
100
AcDbBlockEnd
0
BLOCK
5
7C
330
7B
100
AcDbEntity
8
0
100
AcDbBlockBegin
2
*D25
70
1
10
0
20
0
3
*D25
1

0
LINE
5
14D
100
AcDbEntity
8
Dimension
6
CONTINUOUS
62
7
370
0
100
AcDbLine
10
60
20
76.2696617524
11
52
21
76.2696617524
0
SOLID
5
14E
100
AcDbEntity
8
Dimension
6
CONTINUOUS
62
7
370
0
100
AcDbTrace
10
60
20
76.2696617524
30
0
11
58.5
21
76.0198909578
31
0
12
58.5
22
76.5194325471
32
0
13
58.5
23
76.5194325471
33
0
0
SOLID
5
14F
100
AcDbEntity
8
Dimension
6
CONTINUOUS
62
7
370
0
100
AcDbTrace
10
52
20
76.2696617524
30
0
11
53.5
21
76.5194325471
31
0
12
53.5
22
76.0198909578
32
0
13
53.5
23
76.0198909578
33
0
0
MTEXT
5
150
100
AcDbEntity
8
Dimension
6
CONTINUOUS
62
7
370
0
100
AcDbMText
10
56
20
77.5196617524
30
0
40
1.5
41
0.666666666667
71
5
72
1
1
8
7
standard
210
0
220
0
230
1
50
360
73
2
44
1
0
LINE
5
151
100
AcDbEntity
8
Dimension
6
CONTINUOUS
62
7
370
0
100
AcDbLine
10
60
20
70.75
11
60
21
77.1696617524
0
LINE
5
152
100
AcDbEntity
8
Dimension
6
CONTINUOUS
62
7
370
0
100
AcDbLine
10
52
20
70.75
11
52
21
77.1696617524
0
ENDBLK
5
7D
330
7B
100
AcDbEntity
8
0
100
AcDbBlockEnd
0
BLOCK
5
7F
330
7E
100
AcDbEntity
8
0
100
AcDbBlockBegin
2
*D42
70
1
10
0
20
0
3
*D42
1

0
LINE
5
153
100
AcDbEntity
8
Dimension
6
CONTINUOUS
62
7
370
0
100
AcDbLine
10
60
20
49.1127232267
11
50
21
49.1127232267
0
SOLID
5
154
100
AcDbEntity
8
Dimension
6
CONTINUOUS
62
7
370
0
100
AcDbTrace
10
60
20
49.1127232267
30
0
11
58.5
21
48.862952432
31
0
12
58.5
22
49.3624940214
32
0
13
58.5
23
49.3624940214
33
0
0
SOLID
5
155
100
AcDbEntity
8
Dimension
6
CONTINUOUS
62
7
370
0
100
AcDbTrace
10
50
20
49.1127232267
30
0
11
51.5
21
49.3624940214
31
0
12
51.5
22
48.862952432
32
0
13
51.5
23
48.862952432
33
0
0
MTEXT
5
156
100
AcDbEntity
8
Dimension
6
CONTINUOUS
62
7
370
0
100
AcDbMText
10
55
20
50.3627232267
30
0
40
1.5
41
1.5
71
5
72
1
1
10
7
standard
210
0
220
0
230
1
50
360
73
2
44
1
0
LINE
5
157
100
AcDbEntity
8
Dimension
6
CONTINUOUS
62
7
370
0
100
AcDbLine
10
60
20
69.75
11
60
21
48.2127232267
0
LINE
5
158
100
AcDbEntity
8
Dimension
6
CONTINUOUS
62
7
370
0
100
AcDbLine
10
50
20
44.25
11
50
21
48.2127232267
0
ENDBLK
5
80
330
7E
100
AcDbEntity
8
0
100
AcDbBlockEnd
0
BLOCK
5
82
330
81
100
AcDbEntity
8
0
100
AcDbBlockBegin
2
*D46
70
1
10
0
20
0
3
*D46
1

0
LINE
5
159
100
AcDbEntity
8
Dimension
6
CONTINUOUS
62
7
370
0
100
AcDbLine
10
15.5
20
-9.46318188511
11
20
21
-9.46318188511
0
SOLID
5
15A
100
AcDbEntity
8
Dimension
6
CONTINUOUS
62
7
370
0
100
AcDbTrace
10
15.5
20
-9.46318188511
30
0
11
17
21
-9.21341109045
31
0
12
17
22
-9.71295267978
32
0
13
17
23
-9.71295267978
33
0
0
SOLID
5
15B
100
AcDbEntity
8
Dimension
6
CONTINUOUS
62
7
370
0
100
AcDbTrace
10
20
20
-9.46318188511
30
0
11
18.5
21
-9.71295267978
31
0
12
18.5
22
-9.21341109045
32
0
13
18.5
23
-9.21341109045
33
0
0
MTEXT
5
15C
100
AcDbEntity
8
Dimension
6
CONTINUOUS
62
7
370
0
100
AcDbMText
10
24.9583333333
20
-8.21318188511
30
0
40
1.5
41
8.91666666667
71
5
72
1
1
2X 4 1/2
7
standard
210
0
220
0
230
1
50
0
73
2
44
1
0
LINE
5
15D
100
AcDbEntity
8
Dimension
6
CONTINUOUS
62
7
370
0
100
AcDbLine
10
15.5
20
6.25
11
15.5
21
-10.3631818851
0
LINE
5
15E
100
AcDbEntity
8
Dimension
6
CONTINUOUS
62
7
370
0
100
AcDbLine
10
20
20
6.25
11
20
21
-10.3631818851
0
ENDBLK
5
83
330
81
100
AcDbEntity
8
0
100
AcDbBlockEnd
0
BLOCK
5
85
330
84
100
AcDbEntity
8
0
100
AcDbBlockBegin
2
*D37
70
1
10
0
20
0
3
*D37
1

0
LINE
5
15F
100
AcDbEntity
8
Dimension
6
CONTINUOUS
62
7
370
0
100
AcDbLine
10
68.8617746871
20
38.75
11
68.8617746871
21
44.75
0
SOLID
5
160
100
AcDbEntity
8
Dimension
6
CONTINUOUS
62
7
370
0
100
AcDbTrace
10
68.8617746871
20
38.75
30
0
11
68.6120038924
21
40.25
31
0
12
69.1115454817
22
40.25
32
0
13
69.1115454817
23
40.25
33
0
0
SOLID
5
161
100
AcDbEntity
8
Dimension
6
CONTINUOUS
62
7
370
0
100
AcDbTrace
10
68.8617746871
20
44.75
30
0
11
69.1115454817
21
43.25
31
0
12
68.6120038924
22
43.25
32
0
13
68.6120038924
23
43.25
33
0
0
MTEXT
5
162
100
AcDbEntity
8
Dimension
6
CONTINUOUS
62
7
370
0
100
AcDbMText
10
67.6117746871
20
41.75
30
0
40
1.5
41
0.666666666667
71
5
72
1
1
6
7
standard
210
0
220
0
230
1
50
90
73
2
44
1
0
LINE
5
163
100
AcDbEntity
8
Dimension
6
CONTINUOUS
62
7
370
0
100
AcDbLine
10
50.5
20
38.75
11
69.7617746871
21
38.75
0
LINE
5
164
100
AcDbEntity
8
Dimension
6
CONTINUOUS
62
7
370
0
100
AcDbLine
10
50.5
20
44.75
11
69.7617746871
21
44.75
0
ENDBLK
5
86
330
84
100
AcDbEntity
8
0
100
AcDbBlockEnd
0
BLOCK
5
88
330
87
100
AcDbEntity
8
0
100
AcDbBlockBegin
2
*D21
70
1
10
0
20
0
3
*D21
1

0
LINE
5
165
100
AcDbEntity
8
Dimension
6
CONTINUOUS
62
7
370
0
100
AcDbLine
10
-4
20
37.5
11
-4
21
46
0
SOLID
5
166
100
AcDbEntity
8
Dimension
6
CONTINUOUS
62
7
370
0
100
AcDbTrace
10
-4
20
37.5
30
0
11
-4.24977079466
21
39
31
0
12
-3.75022920534
22
39
32
0
13
-3.75022920534
23
39
33
0
0
SOLID
5
167
100
AcDbEntity
8
Dimension
6
CONTINUOUS
62
7
370
0
100
AcDbTrace
10
-4
20
46
30
0
11
-3.75022920534
21
44.5
31
0
12
-4.24977079466
22
44.5
32
0
13
-4.24977079466
23
44.5
33
0
0
MTEXT
5
168
100
AcDbEntity
8
Dimension
6
CONTINUOUS
62
7
370
0
100
AcDbMText
10
-5.25
20
41.75
30
0
40
1.5
41
4.95833333333
71
5
72
1
1
8 1/2
7
standard
210
0
220
0
230
1
50
90
73
2
44
1
0
LINE
5
169
100
AcDbEntity
8
Dimension
6
CONTINUOUS
62
7
370
0
100
AcDbLine
10
0.25
20
37.5
11
-4.9
21
37.5
0
LINE
5
16A
100
AcDbEntity
8
Dimension
6
CONTINUOUS
62
7
370
0
100
AcDbLine
10
0.25
20
46
11
-4.9
21
46
0
ENDBLK
5
89
330
87
100
AcDbEntity
8
0
100
AcDbBlockEnd
0
BLOCK
5
8B
330
8A
100
AcDbEntity
8
0
100
AcDbBlockBegin
2
*D3
70
1
10
0
20
0
3
*D3
1

0
LINE
5
16B
100
AcDbEntity
8
Lumber
6
CONTINUOUS
62
7
370
0
100
AcDbLine
10
12.75
20
12.2648453728
11
20
21
12.2648453728
0
SOLID
5
16C
100
AcDbEntity
8
Lumber
6
CONTINUOUS
62
7
370
0
100
AcDbTrace
10
12.75
20
12.2648453728
30
0
11
14.25
21
12.5146161675
31
0
12
14.25
22
12.0150745781
32
0
13
14.25
23
12.0150745781
33
0
0
SOLID
5
16D
100
AcDbEntity
8
Lumber
6
CONTINUOUS
62
7
370
0
100
AcDbTrace
10
20
20
12.2648453728
30
0
11
18.5
21
12.0150745781
31
0
12
18.5
22
12.5146161675
32
0
13
18.5
23
12.5146161675
33
0
0
MTEXT
5
16E
100
AcDbEntity
8
Lumber
6
CONTINUOUS
62
7
370
0
100
AcDbMText
10
16.375
20
13.5148453728
30
0
40
1.5
41
5.125
71
5
72
1
1
7 1/4
7
standard
210
0
220
0
230
1
50
0
73
2
44
1
0
LINE
5
16F
100
AcDbEntity
8
Lumber
6
CONTINUOUS
62
7
370
0
100
AcDbLine
10
12.75
20
4.5
11
12.75
21
13.1648453728
0
LINE
5
170
100
AcDbEntity
8
Lumber
6
CONTINUOUS
62
7
370
0
100
AcDbLine
10
20
20
4.5
11
20
21
13.1648453728
0
ENDBLK
5
8C
330
8A
100
AcDbEntity
8
0
100
AcDbBlockEnd
0
BLOCK
5
8E
330
8D
100
AcDbEntity
8
0
100
AcDbBlockBegin
2
*D39
70
1
10
0
20
0
3
*D39
1

0
LINE
5
171
100
AcDbEntity
8
Dimension
6
CONTINUOUS
62
7
370
0
100
AcDbLine
10
37.4020806676
20
0
11
37.4020806676
21
24
0
SOLID
5
172
100
AcDbEntity
8
Dimension
6
CONTINUOUS
62
7
370
0
100
AcDbTrace
10
37.4020806676
20
0
30
0
11
37.1523098729
21
1.5
31
0
12
37.6518514623
22
1.5
32
0
13
37.6518514623
23
1.5
33
0
0
SOLID
5
173
100
AcDbEntity
8
Dimension
6
CONTINUOUS
62
7
370
0
100
AcDbTrace
10
37.4020806676
20
24
30
0
11
37.6518514623
21
22.5
31
0
12
37.1523098729
22
22.5
32
0
13
37.1523098729
23
22.5
33
0
0
MTEXT
5
174
100
AcDbEntity
8
Dimension
6
CONTINUOUS
62
7
370
0
100
AcDbMText
10
36.1520806676
20
12
30
0
40
1.5
41
2
71
5
72
1
1
24
7
standard
210
0
220
0
230
1
50
90
73
2
44
1
0
LINE
5
175
100
AcDbEntity
8
Dimension
6
CONTINUOUS
62
7
370
0
100
AcDbLine
10
44
20
-2.38767660043e-16
11
36.5020806676
21
1.10218211923e-16
0
LINE
5
176
100
AcDbEntity
8
Dimension
6
CONTINUOUS
62
7
370
0
100
AcDbLine
10
46.5
20
24
11
36.5020806676
21
24
0
ENDBLK
5
8F
330
8D
100
AcDbEntity
8
0
100
AcDbBlockEnd
0
BLOCK
5
91
330
90
100
AcDbEntity
8
0
100
AcDbBlockBegin
2
*D45
70
1
10
0
20
0
3
*D45
1

0
LINE
5
177
100
AcDbEntity
8
Dimension
6
CONTINUOUS
62
7
370
0
100
AcDbLine
10
20.25
20
-4.8307290385
11
24.75
21
-4.8307290385
0
SOLID
5
178
100
AcDbEntity
8
Dimension
6
CONTINUOUS
62
7
370
0
100
AcDbTrace
10
20.25
20
-4.8307290385
30
0
11
21.75
21
-4.58095824383
31
0
12
21.75
22
-5.08049983316
32
0
13
21.75
23
-5.08049983316
33
0
0
SOLID
5
179
100
AcDbEntity
8
Dimension
6
CONTINUOUS
62
7
370
0
100
AcDbTrace
10
24.75
20
-4.8307290385
30
0
11
23.25
21
-5.08049983316
31
0
12
23.25
22
-4.58095824383
32
0
13
23.25
23
-4.58095824383
33
0
0
MTEXT
5
17A
100
AcDbEntity
8
Dimension
6
CONTINUOUS
62
7
370
0
100
AcDbMText
10
29.7083333333
20
-3.5807290385
30
0
40
1.5
41
8.91666666667
71
5
72
1
1
2X 4 1/2
7
standard
210
0
220
0
230
1
50
0
73
2
44
1
0
LINE
5
17B
100
AcDbEntity
8
Dimension
6
CONTINUOUS
62
7
370
0
100
AcDbLine
10
20.25
20
6.25
11
20.25
21
-5.7307290385
0
LINE
5
17C
100
AcDbEntity
8
Dimension
6
CONTINUOUS
62
7
370
0
100
AcDbLine
10
24.75
20
-0.5
11
24.75
21
-5.7307290385
0
ENDBLK
5
92
330
90
100
AcDbEntity
8
0
100
AcDbBlockEnd
0
BLOCK
5
94
330
93
100
AcDbEntity
8
0
100
AcDbBlockBegin
2
*D52
70
1
10
0
20
0
3
*D52
1

0
LINE
5
17D
100
AcDbEntity
8
Dimension
6
CONTINUOUS
62
7
370
0
100
AcDbLine
10
16.3758373674
20
62.7481459749
11
21.1241626326
21
67.0018540251
0
SOLID
5
17E
100
AcDbEntity
8
Dimension
6
CONTINUOUS
62
7
370
0
100
AcDbTrace
10
18.6103433746
20
64.7498909397
30
0
11
17.6597495145
21
63.5629803436
31
0
12
17.3264312274
22
63.935056571
32
0
13
17.3264312274
23
63.935056571
33
0
0
SOLID
5
17F
100
AcDbEntity
8
Dimension
6
CONTINUOUS
62
7
370
0
100
AcDbTrace
10
18.8896566254
20
65.0001090603
30
0
11
19.8402504855
21
66.1870196564
31
0
12
20.1735687726
22
65.814943429
32
0
13
20.1735687726
23
65.814943429
33
0
0
MTEXT
5
180
100
AcDbEntity
8
Dimension
6
CONTINUOUS
62
7
370
0
100
AcDbMText
10
23.5642741088
20
70.8660105022
30
0
40
1.5
41
13.7916663487
71
5
72
1
1
%%C3/8 DOWELS
7
standard
210
0
220
0
230
1
50
41.8550425353
73
2
44
1
0
ENDBLK
5
95
330
93
100
AcDbEntity
8
0
100
AcDbBlockEnd
0
BLOCK
5
97
330
96
100
AcDbEntity
8
0
100
AcDbBlockBegin
2
*D15
70
1
10
0
20
0
3
*D15
1

0
LINE
5
181
100
AcDbEntity
8
Lumber
6
CONTINUOUS
62
7
370
0
100
AcDbLine
10
30.5525586577
20
102
11
30.5525586577
21
97.5
0
SOLID
5
182
100
AcDbEntity
8
Lumber
6
CONTINUOUS
62
7
370
0
100
AcDbTrace
10
30.5525586577
20
102
30
0
11
30.8023294523
21
100.5
31
0
12
30.302787863
22
100.5
32
0
13
30.302787863
23
100.5
33
0
0
SOLID
5
183
100
AcDbEntity
8
Lumber
6
CONTINUOUS
62
7
370
0
100
AcDbTrace
10
30.5525586577
20
97.5
30
0
11
30.302787863
21
99
31
0
12
30.8023294523
22
99
32
0
13
30.8023294523
23
99
33
0
0
MTEXT
5
184
100
AcDbEntity
8
Lumber
6
CONTINUOUS
62
7
370
0
100
AcDbMText
10
29.3025586577
20
105.0625
30
0
40
1.5
41
5.125
71
5
72
1
1
4 1/2
7
standard
210
0
220
0
230
1
50
90
73
2
44
1
0
LINE
5
185
100
AcDbEntity
8
Lumber
6
CONTINUOUS
62
7
370
0
100
AcDbLine
10
25.5
20
102
11
31.4525586577
21
102
0
LINE
5
186
100
AcDbEntity
8
Lumber
6
CONTINUOUS
62
7
370
0
100
AcDbLine
10
25.25
20
97.5
11
31.4525586577
21
97.5
0
ENDBLK
5
98
330
96
100
AcDbEntity
8
0
100
AcDbBlockEnd
0
BLOCK
5
9A
330
99
100
AcDbEntity
8
0
100
AcDbBlockBegin
2
*D55
70
1
10
0
20
0
3
*D55
1

0
SOLID
5
187
100
AcDbEntity
8
Dimension
6
CONTINUOUS
62
7
370
0
100
AcDbTrace
10
52.2098863405
20
10.9075418209
30
0
11
53.7015993493
21
10.6122830376
31
0
12
53.5254334609
22
10.1448353087
32
0
13
53.5254334609
23
10.1448353087
33
0
0
LINE
5
188
100
AcDbEntity
8
Dimension
6
CONTINUOUS
62
7
370
0
100
AcDbLine
10
47.984375
20
12.5
11
59.812882524
21
8.04221914569
0
MTEXT
5
189
100
AcDbEntity
8
Dimension
6
CONTINUOUS
62
7
370
0
100
AcDbMText
10
56.4522033053
20
10.6445722038
30
0
40
1.5
41
5.125
71
5
72
1
1
4 1/2
7
standard
210
0
220
0
230
1
50
339.350200949
73
2
44
1
0
ENDBLK
5
9B
330
99
100
AcDbEntity
8
0
100
AcDbBlockEnd
0
BLOCK
5
9D
330
9C
100
AcDbEntity
8
0
100
AcDbBlockBegin
2
*D47
70
1
10
0
20
0
3
*D47
1

0
LINE
5
18A
100
AcDbEntity
8
Dimension
6
CONTINUOUS
62
7
370
0
100
AcDbLine
10
12.25
20
-14.1657661205
11
18.5
21
-14.1657661205
0
SOLID
5
18B
100
AcDbEntity
8
Dimension
6
CONTINUOUS
62
7
370
0
100
AcDbTrace
10
15.25
20
-14.1657661205
30
0
11
13.75
21
-14.4155369152
31
0
12
13.75
22
-13.9159953258
32
0
13
13.75
23
-13.9159953258
33
0
0
SOLID
5
18C
100
AcDbEntity
8
Dimension
6
CONTINUOUS
62
7
370
0
100
AcDbTrace
10
15.5
20
-14.1657661205
30
0
11
17
21
-13.9159953258
31
0
12
17
22
-14.4155369152
32
0
13
17
23
-14.4155369152
33
0
0
MTEXT
5
18D
100
AcDbEntity
8
Dimension
6
CONTINUOUS
62
7
370
0
100
AcDbMText
10
19.3958333333
20
-12.9157661205
30
0
40
1.5
41
6.79166666667
71
5
72
1
1
4X 1/4
7
standard
210
0
220
0
230
1
50
0
73
2
44
1
0
LINE
5
18E
100
AcDbEntity
8
Dimension
6
CONTINUOUS
62
7
370
0
100
AcDbLine
10
15.25
20
6.25
11
15.25
21
-15.0657661205
0
LINE
5
18F
100
AcDbEntity
8
Dimension
6
CONTINUOUS
62
7
370
0
100
AcDbLine
10
15.5
20
6.25
11
15.5
21
-15.0657661205
0
ENDBLK
5
9E
330
9C
100
AcDbEntity
8
0
100
AcDbBlockEnd
0
BLOCK
5
A0
330
9F
100
AcDbEntity
8
0
100
AcDbBlockBegin
2
*D11
70
1
10
0
20
0
3
*D11
1

0
LINE
5
190
100
AcDbEntity
8
Lumber
6
CONTINUOUS
62
7
370
0
100
AcDbLine
10
50.25
20
19.2508157206
11
41.5
21
19.2508157206
0
SOLID
5
191
100
AcDbEntity
8
Lumber
6
CONTINUOUS
62
7
370
0
100
AcDbTrace
10
47.25
20
19.2508157206
30
0
11
48.75
21
19.5005865152
31
0
12
48.75
22
19.0010449259
32
0
13
48.75
23
19.0010449259
33
0
0
SOLID
5
192
100
AcDbEntity
8
Lumber
6
CONTINUOUS
62
7
370
0
100
AcDbTrace
10
44.5
20
19.2508157206
30
0
11
43
21
19.0010449259
31
0
12
43
22
19.5005865152
32
0
13
43
23
19.5005865152
33
0
0
MTEXT
5
193
100
AcDbEntity
8
Lumber
6
CONTINUOUS
62
7
370
0
100
AcDbMText
10
50.4791666667
20
20.5008157206
30
0
40
1.5
41
5.45833333333
71
5
72
1
1
2 3/4
7
standard
210
0
220
0
230
1
50
360
73
2
44
1
0
LINE
5
194
100
AcDbEntity
8
Lumber
6
CONTINUOUS
62
7
370
0
100
AcDbLine
10
47.25
20
0.5
11
47.25
21
20.1508157206
0
LINE
5
195
100
AcDbEntity
8
Lumber
6
CONTINUOUS
62
7
370
0
100
AcDbLine
10
44.5
20
0.5
11
44.5
21
20.1508157206
0
ENDBLK
5
A1
330
9F
100
AcDbEntity
8
0
100
AcDbBlockEnd
0
BLOCK
5
A3
330
A2
100
AcDbEntity
8
0
100
AcDbBlockBegin
2
*D27
70
1
10
0
20
0
3
*D27
1

0
LINE
5
196
100
AcDbEntity
8
Dimension
6
CONTINUOUS
62
7
370
0
100
AcDbLine
10
60
20
73.2122455633
11
54.5
21
73.2122455633
0
SOLID
5
197
100
AcDbEntity
8
Dimension
6
CONTINUOUS
62
7
370
0
100
AcDbTrace
10
60
20
73.2122455633
30
0
11
58.5
21
72.9624747686
31
0
12
58.5
22
73.4620163579
32
0
13
58.5
23
73.4620163579
33
0
0
SOLID
5
198
100
AcDbEntity
8
Dimension
6
CONTINUOUS
62
7
370
0
100
AcDbTrace
10
54.5
20
73.2122455633
30
0
11
56
21
73.4620163579
31
0
12
56
22
72.9624747686
32
0
13
56
23
72.9624747686
33
0
0
MTEXT
5
199
100
AcDbEntity
8
Dimension
6
CONTINUOUS
62
7
370
0
100
AcDbMText
10
57.25
20
74.4622455633
30
0
40
1.5
41
4.95833333333
71
5
72
1
1
5 1/2
7
standard
210
0
220
0
230
1
50
360
73
2
44
1
0
LINE
5
19A
100
AcDbEntity
8
Dimension
6
CONTINUOUS
62
7
370
0
100
AcDbLine
10
60
20
70.75
11
60
21
74.1122455633
0
LINE
5
19B
100
AcDbEntity
8
Dimension
6
CONTINUOUS
62
7
370
0
100
AcDbLine
10
54.5
20
69.25
11
54.5
21
74.1122455633
0
ENDBLK
5
A4
330
A2
100
AcDbEntity
8
0
100
AcDbBlockEnd
0
BLOCK
5
A6
330
A5
100
AcDbEntity
8
0
100
AcDbBlockBegin
2
*D1
70
1
10
0
20
0
3
*D1
1

0
LINE
5
19C
100
AcDbEntity
8
Dimension
6
CONTINUOUS
62
7
370
0
100
AcDbLine
10
-8
20
8.881784197e-16
11
-8
21
6
0
SOLID
5
19D
100
AcDbEntity
8
Dimension
6
CONTINUOUS
62
7
370
0
100
AcDbTrace
10
-8
20
8.881784197e-16
30
0
11
-8.24977079466
21
1.5
31
0
12
-7.75022920534
22
1.5
32
0
13
-7.75022920534
23
1.5
33
0
0
SOLID
5
19E
100
AcDbEntity
8
Dimension
6
CONTINUOUS
62
7
370
0
100
AcDbTrace
10
-8
20
6
30
0
11
-7.75022920534
21
4.5
31
0
12
-8.24977079466
22
4.5
32
0
13
-8.24977079466
23
4.5
33
0
0
MTEXT
5
19F
100
AcDbEntity
8
Dimension
6
CONTINUOUS
62
7
370
0
100
AcDbMText
10
-9.25
20
3
30
0
40
1.5
41
0.666666666667
71
5
72
1
1
6
7
standard
210
0
220
0
230
1
50
90
73
2
44
1
0
LINE
5
1A0
100
AcDbEntity
8
Dimension
6
CONTINUOUS
62
7
370
0
100
AcDbLine
10
-0.5
20
6.12323399574e-17
11
-8.9
21
9.98396631623e-16
0
LINE
5
1A1
100
AcDbEntity
8
Dimension
6
CONTINUOUS
62
7
370
0
100
AcDbLine
10
0.25
20
6
11
-8.9
21
6
0
ENDBLK
5
A7
330
A5
100
AcDbEntity
8
0
100
AcDbBlockEnd
0
BLOCK
5
A9
330
A8
100
AcDbEntity
8
0
100
AcDbBlockBegin
2
*D6
70
1
10
0
20
0
3
*D6
1

0
LINE
5
1A2
100
AcDbEntity
8
Dimension
6
CONTINUOUS
62
7
370
0
100
AcDbLine
10
60
20
-13.8568020461
11
44.5
21
-13.8568020461
0
SOLID
5
1A3
100
AcDbEntity
8
Dimension
6
CONTINUOUS
62
7
370
0
100
AcDbTrace
10
60
20
-13.8568020461
30
0
11
58.5
21
-14.1065728407
31
0
12
58.5
22
-13.6070312514
32
0
13
58.5
23
-13.6070312514
33
0
0
SOLID
5
1A4
100
AcDbEntity
8
Dimension
6
CONTINUOUS
62
7
370
0
100
AcDbTrace
10
44.5
20
-13.8568020461
30
0
11
46
21
-13.6070312514
31
0
12
46
22
-14.1065728407
32
0
13
46
23
-14.1065728407
33
0
0
MTEXT
5
1A5
100
AcDbEntity
8
Dimension
6
CONTINUOUS
62
7
370
0
100
AcDbMText
10
52.25
20
-12.6068020461
30
0
40
1.5
41
5.79166666667
71
5
72
1
1
15 1/2
7
standard
210
0
220
0
230
1
50
360
73
2
44
1
0
LINE
5
1A6
100
AcDbEntity
8
Dimension
6
CONTINUOUS
62
7
370
0
100
AcDbLine
10
60
20
-0.5
11
60
21
-14.7568020461
0
LINE
5
1A7
100
AcDbEntity
8
Dimension
6
CONTINUOUS
62
7
370
0
100
AcDbLine
10
44.5
20
-0.5
11
44.5
21
-14.7568020461
0
ENDBLK
5
AA
330
A8
100
AcDbEntity
8
0
100
AcDbBlockEnd
0
BLOCK
5
AC
330
AB
100
AcDbEntity
8
0
100
AcDbBlockBegin
2
*D40
70
1
10
0
20
0
3
*D40
1

0
LINE
5
1A8
100
AcDbEntity
8
Dimension
6
CONTINUOUS
62
7
370
0
100
AcDbLine
10
25.5
20
86.9584018009
11
0
21
86.9584018009
0
SOLID
5
1A9
100
AcDbEntity
8
Dimension
6
CONTINUOUS
62
7
370
0
100
AcDbTrace
10
25.5
20
86.9584018009
30
0
11
24
21
86.7086310062
31
0
12
24
22
87.2081725956
32
0
13
24
23
87.2081725956
33
0
0
SOLID
5
1AA
100
AcDbEntity
8
Dimension
6
CONTINUOUS
62
7
370
0
100
AcDbTrace
10
0
20
86.9584018009
30
0
11
1.5
21
87.2081725956
31
0
12
1.5
22
86.7086310062
32
0
13
1.5
23
86.7086310062
33
0
0
MTEXT
5
1AB
100
AcDbEntity
8
Dimension
6
CONTINUOUS
62
7
370
0
100
AcDbMText
10
12.75
20
88.2084018009
30
0
40
1.5
41
6.125
71
5
72
1
1
25 1/2
7
standard
210
0
220
0
230
1
50
360
73
2
44
1
0
LINE
5
1AC
100
AcDbEntity
8
Dimension
6
CONTINUOUS
62
7
370
0
100
AcDbLine
10
25.5
20
70.75
11
25.5
21
87.8584018009
0
LINE
5
1AD
100
AcDbEntity
8
Dimension
6
CONTINUOUS
62
7
370
0
100
AcDbLine
10
3.06161699787e-17
20
70.75
11
5.51091059616e-17
21
87.8584018009
0
ENDBLK
5
AD
330
AB
100
AcDbEntity
8
0
100
AcDbBlockEnd
0
BLOCK
5
AF
330
AE
100
AcDbEntity
8
0
100
AcDbBlockBegin
2
*D12
70
1
10
0
20
0
3
*D12
1

0
LINE
5
1AE
100
AcDbEntity
8
Lumber
6
CONTINUOUS
62
7
370
0
100
AcDbLine
10
47.5
20
9.3211440313
11
54.75
21
9.3211440313
0
SOLID
5
1AF
100
AcDbEntity
8
Lumber
6
CONTINUOUS
62
7
370
0
100
AcDbTrace
10
47.5
20
9.3211440313
30
0
11
49
21
9.57091482596
31
0
12
49
22
9.07137323663
32
0
13
49
23
9.07137323663
33
0
0
SOLID
5
1B0
100
AcDbEntity
8
Lumber
6
CONTINUOUS
62
7
370
0
100
AcDbTrace
10
54.75
20
9.3211440313
30
0
11
53.25
21
9.07137323663
31
0
12
53.25
22
9.57091482596
32
0
13
53.25
23
9.57091482596
33
0
0
MTEXT
5
1B1
100
AcDbEntity
8
Lumber
6
CONTINUOUS
62
7
370
0
100
AcDbMText
10
51.125
20
10.5711440313
30
0
40
1.5
41
5.125
71
5
72
1
1
7 1/4
7
standard
210
0
220
0
230
1
50
0
73
2
44
1
0
LINE
5
1B2
100
AcDbEntity
8
Lumber
6
CONTINUOUS
62
7
370
0
100
AcDbLine
10
47.5
20
7.25
11
47.5
21
10.2211440313
0
LINE
5
1B3
100
AcDbEntity
8
Lumber
6
CONTINUOUS
62
7
370
0
100
AcDbLine
10
54.75
20
7.25
11
54.75
21
10.2211440313
0
ENDBLK
5
B0
330
AE
100
AcDbEntity
8
0
100
AcDbBlockEnd
0
BLOCK
5
B2
330
B1
100
AcDbEntity
8
0
100
AcDbBlockBegin
2
*D48
70
1
10
0
20
0
3
*D48
1

0
LINE
5
1B4
100
AcDbEntity
8
Dimension
6
CONTINUOUS
62
7
370
0
100
AcDbLine
10
3.75
20
-5.20877859834
11
-3
21
-5.20877859834
0
SOLID
5
1B5
100
AcDbEntity
8
Dimension
6
CONTINUOUS
62
7
370
0
100
AcDbTrace
10
0.75
20
-5.20877859834
30
0
11
2.25
21
-4.95900780368
31
0
12
2.25
22
-5.45854939301
32
0
13
2.25
23
-5.45854939301
33
0
0
SOLID
5
1B6
100
AcDbEntity
8
Dimension
6
CONTINUOUS
62
7
370
0
100
AcDbTrace
10
0
20
-5.20877859834
30
0
11
-1.5
21
-5.45854939301
31
0
12
-1.5
22
-4.95900780368
32
0
13
-1.5
23
-4.95900780368
33
0
0
MTEXT
5
1B7
100
AcDbEntity
8
Dimension
6
CONTINUOUS
62
7
370
0
100
AcDbMText
10
5.14583333333
20
-3.95877859834
30
0
40
1.5
41
7.79166666667
71
5
72
1
1
10X 3/4
7
standard
210
0
220
0
230
1
50
360
73
2
44
1
0
LINE
5
1B8
100
AcDbEntity
8
Dimension
6
CONTINUOUS
62
7
370
0
100
AcDbLine
10
0.75
20
-0.5
11
0.75
21
-6.10877859834
0
LINE
5
1B9
100
AcDbEntity
8
Dimension
6
CONTINUOUS
62
7
370
0
100
AcDbLine
10
-9.18485099361e-17
20
-0.5
11
-1.65327317885e-16
21
-6.10877859834
0
ENDBLK
5
B3
330
B1
100
AcDbEntity
8
0
100
AcDbBlockEnd
0
BLOCK
5
B5
330
B4
100
AcDbEntity
8
0
100
AcDbBlockBegin
2
*D2
70
1
10
0
20
0
3
*D2
1

0
LINE
5
1BA
100
AcDbEntity
8
Lumber
6
CONTINUOUS
62
7
370
0
100
AcDbLine
10
52.75
20
15.0633675661
11
60
21
15.0633675661
0
SOLID
5
1BB
100
AcDbEntity
8
Lumber
6
CONTINUOUS
62
7
370
0
100
AcDbTrace
10
52.75
20
15.0633675661
30
0
11
54.25
21
15.3131383607
31
0
12
54.25
22
14.8135967714
32
0
13
54.25
23
14.8135967714
33
0
0
SOLID
5
1BC
100
AcDbEntity
8
Lumber
6
CONTINUOUS
62
7
370
0
100
AcDbTrace
10
60
20
15.0633675661
30
0
11
58.5
21
14.8135967714
31
0
12
58.5
22
15.3131383607
32
0
13
58.5
23
15.3131383607
33
0
0
MTEXT
5
1BD
100
AcDbEntity
8
Lumber
6
CONTINUOUS
62
7
370
0
100
AcDbMText
10
56.375
20
16.3133675661
30
0
40
1.5
41
5.125
71
5
72
1
1
7 1/4
7
standard
210
0
220
0
230
1
50
0
73
2
44
1
0
LINE
5
1BE
100
AcDbEntity
8
Lumber
6
CONTINUOUS
62
7
370
0
100
AcDbLine
10
52.75
20
0.5
11
52.75
21
15.9633675661
0
LINE
5
1BF
100
AcDbEntity
8
Lumber
6
CONTINUOUS
62
7
370
0
100
AcDbLine
10
60
20
0.5
11
60
21
15.9633675661
0
ENDBLK
5
B6
330
B4
100
AcDbEntity
8
0
100
AcDbBlockEnd
0
BLOCK
5
B8
330
B7
100
AcDbEntity
8
0
100
AcDbBlockBegin
2
*D7
70
1
10
0
20
0
3
*D7
1

0
LINE
5
1C0
100
AcDbEntity
8
Dimension
6
CONTINUOUS
62
7
370
0
100
AcDbLine
10
52
20
-4.8307290385
11
59
21
-4.8307290385
0
SOLID
5
1C1
100
AcDbEntity
8
Dimension
6
CONTINUOUS
62
7
370
0
100
AcDbTrace
10
55
20
-4.8307290385
30
0
11
53.5
21
-5.08049983316
31
0
12
53.5
22
-4.58095824383
32
0
13
53.5
23
-4.58095824383
33
0
0
SOLID
5
1C2
100
AcDbEntity
8
Dimension
6
CONTINUOUS
62
7
370
0
100
AcDbTrace
10
56
20
-4.8307290385
30
0
11
57.5
21
-4.58095824383
31
0
12
57.5
22
-5.08049983316
32
0
13
57.5
23
-5.08049983316
33
0
0
MTEXT
5
1C3
100
AcDbEntity
8
Dimension
6
CONTINUOUS
62
7
370
0
100
AcDbMText
10
58.5625
20
-3.5807290385
30
0
40
1.5
41
4.125
71
5
72
1
1
2X 1
7
standard
210
0
220
0
230
1
50
0
73
2
44
1
0
LINE
5
1C4
100
AcDbEntity
8
Dimension
6
CONTINUOUS
62
7
370
0
100
AcDbLine
10
55
20
3.5
11
55
21
-5.7307290385
0
LINE
5
1C5
100
AcDbEntity
8
Dimension
6
CONTINUOUS
62
7
370
0
100
AcDbLine
10
56
20
-0.5
11
56
21
-5.7307290385
0
ENDBLK
5
B9
330
B7
100
AcDbEntity
8
0
100
AcDbBlockEnd
0
BLOCK
5
BB
330
BA
100
AcDbEntity
8
0
100
AcDbBlockBegin
2
*D26
70
1
10
0
20
0
3
*D26
1

0
LINE
5
1C6
100
AcDbEntity
8
Dimension
6
CONTINUOUS
62
7
370
0
100
AcDbLine
10
60
20
80.0727892072
11
47
21
80.0727892072
0
SOLID
5
1C7
100
AcDbEntity
8
Dimension
6
CONTINUOUS
62
7
370
0
100
AcDbTrace
10
60
20
80.0727892072
30
0
11
58.5
21
79.8230184126
31
0
12
58.5
22
80.3225600019
32
0
13
58.5
23
80.3225600019
33
0
0
SOLID
5
1C8
100
AcDbEntity
8
Dimension
6
CONTINUOUS
62
7
370
0
100
AcDbTrace
10
47
20
80.0727892072
30
0
11
48.5
21
80.3225600019
31
0
12
48.5
22
79.8230184126
32
0
13
48.5
23
79.8230184126
33
0
0
MTEXT
5
1C9
100
AcDbEntity
8
Dimension
6
CONTINUOUS
62
7
370
0
100
AcDbMText
10
53.5
20
81.3227892072
30
0
40
1.5
41
1.5
71
5
72
1
1
13
7
standard
210
0
220
0
230
1
50
360
73
2
44
1
0
LINE
5
1CA
100
AcDbEntity
8
Dimension
6
CONTINUOUS
62
7
370
0
100
AcDbLine
10
60
20
70.75
11
60
21
80.9727892072
0
LINE
5
1CB
100
AcDbEntity
8
Dimension
6
CONTINUOUS
62
7
370
0
100
AcDbLine
10
47
20
70.75
11
47
21
80.9727892072
0
ENDBLK
5
BC
330
BA
100
AcDbEntity
8
0
100
AcDbBlockEnd
0
BLOCK
5
BE
330
BD
100
AcDbEntity
8
0
100
AcDbBlockBegin
2
*D4
70
1
10
0
20
0
3
*D4
1

0
LINE
5
1CC
100
AcDbEntity
8
Dimension
6
CONTINUOUS
62
7
370
0
100
AcDbLine
10
64.3496368188
20
2.22044604925e-15
11
64.3496368188
21
4
0
SOLID
5
1CD
100
AcDbEntity
8
Dimension
6
CONTINUOUS
62
7
370
0
100
AcDbTrace
10
64.3496368188
20
2.22044604925e-15
30
0
11
64.0998660241
21
1.5
31
0
12
64.5994076134
22
1.5
32
0
13
64.5994076134
23
1.5
33
0
0
SOLID
5
1CE
100
AcDbEntity
8
Dimension
6
CONTINUOUS
62
7
370
0
100
AcDbTrace
10
64.3496368188
20
4
30
0
11
64.5994076134
21
2.5
31
0
12
64.0998660241
22
2.5
32
0
13
64.0998660241
23
2.5
33
0
0
MTEXT
5
1CF
100
AcDbEntity
8
Dimension
6
CONTINUOUS
62
7
370
0
100
AcDbMText
10
63.0996368188
20
2
30
0
40
1.5
41
0.833333333333
71
5
72
1
1
4
7
standard
210
0
220
0
230
1
50
90
73
2
44
1
0
LINE
5
1D0
100
AcDbEntity
8
Dimension
6
CONTINUOUS
62
7
370
0
100
AcDbLine
10
60.5
20
1.84835541689e-15
11
65.2496368188
21
2.30748579966e-15
0
LINE
5
1D1
100
AcDbEntity
8
Dimension
6
CONTINUOUS
62
7
370
0
100
AcDbLine
10
60.5
20
4
11
65.2496368188
21
4
0
ENDBLK
5
BF
330
BD
100
AcDbEntity
8
0
100
AcDbBlockEnd
0
BLOCK
5
C1
330
C0
100
AcDbEntity
8
0
100
AcDbBlockBegin
2
*D24
70
1
10
0
20
0
3
*D24
1

0
LINE
5
1D2
100
AcDbEntity
8
Dimension
6
CONTINUOUS
62
7
370
0
100
AcDbLine
10
-11.9430319889
20
0
11
-11.9430319889
21
65.25
0
SOLID
5
1D3
100
AcDbEntity
8
Dimension
6
CONTINUOUS
62
7
370
0
100
AcDbTrace
10
-11.9430319889
20
0
30
0
11
-12.1928027835
21
1.5
31
0
12
-11.6932611942
22
1.5
32
0
13
-11.6932611942
23
1.5
33
0
0
SOLID
5
1D4
100
AcDbEntity
8
Dimension
6
CONTINUOUS
62
7
370
0
100
AcDbTrace
10
-11.9430319889
20
65.25
30
0
11
-11.6932611942
21
63.75
31
0
12
-12.1928027835
22
63.75
32
0
13
-12.1928027835
23
63.75
33
0
0
MTEXT
5
1D5
100
AcDbEntity
8
Dimension
6
CONTINUOUS
62
7
370
0
100
AcDbMText
10
-13.1930319889
20
32.625
30
0
40
1.5
41
6.29166666667
71
5
72
1
1
65 1/4
7
standard
210
0
220
0
230
1
50
90
73
2
44
1
0
LINE
5
1D6
100
AcDbEntity
8
Dimension
6
CONTINUOUS
62
7
370
0
100
AcDbLine
10
-0.5
20
6.12323399574e-17
11
-12.8430319889
21
1.10218211923e-16
0
LINE
5
1D7
100
AcDbEntity
8
Dimension
6
CONTINUOUS
62
7
370
0
100
AcDbLine
10
-0.5
20
65.25
11
-12.8430319889
21
65.25
0
ENDBLK
5
C2
330
C0
100
AcDbEntity
8
0
100
AcDbBlockEnd
0
BLOCK
5
C4
330
C3
100
AcDbEntity
8
0
100
AcDbBlockBegin
2
*D41
70
1
10
0
20
0
3
*D41
1

0
LINE
5
1D8
100
AcDbEntity
8
Dimension
6
CONTINUOUS
62
7
370
0
100
AcDbLine
10
10.25
20
-9.46318188511
11
15.25
21
-9.46318188511
0
SOLID
5
1D9
100
AcDbEntity
8
Dimension
6
CONTINUOUS
62
7
370
0
100
AcDbTrace
10
10.25
20
-9.46318188511
30
0
11
11.75
21
-9.21341109045
31
0
12
11.75
22
-9.71295267978
32
0
13
11.75
23
-9.71295267978
33
0
0
SOLID
5
1DA
100
AcDbEntity
8
Dimension
6
CONTINUOUS
62
7
370
0
100
AcDbTrace
10
15.25
20
-9.46318188511
30
0
11
13.75
21
-9.71295267978
31
0
12
13.75
22
-9.21341109045
32
0
13
13.75
23
-9.21341109045
33
0
0
MTEXT
5
1DB
100
AcDbEntity
8
Dimension
6
CONTINUOUS
62
7
370
0
100
AcDbMText
10
12.75
20
-8.21318188511
30
0
40
1.5
41
0.666666666667
71
5
72
1
1
5
7
standard
210
0
220
0
230
1
50
0
73
2
44
1
0
LINE
5
1DC
100
AcDbEntity
8
Dimension
6
CONTINUOUS
62
7
370
0
100
AcDbLine
10
10.25
20
6.25
11
10.25
21
-10.3631818851
0
LINE
5
1DD
100
AcDbEntity
8
Dimension
6
CONTINUOUS
62
7
370
0
100
AcDbLine
10
15.25
20
6.25
11
15.25
21
-10.3631818851
0
ENDBLK
5
C5
330
C3
100
AcDbEntity
8
0
100
AcDbBlockEnd
0
BLOCK
5
C7
330
C6
100
AcDbEntity
8
0
100
AcDbBlockBegin
2
*D13
70
1
10
0
20
0
3
*D13
1

0
LINE
5
1DE
100
AcDbEntity
8
Lumber
6
CONTINUOUS
62
7
370
0
100
AcDbLine
10
54.75
20
9.3211440313
11
59.5
21
9.3211440313
0
SOLID
5
1DF
100
AcDbEntity
8
Lumber
6
CONTINUOUS
62
7
370
0
100
AcDbTrace
10
54.75
20
9.3211440313
30
0
11
56.25
21
9.57091482596
31
0
12
56.25
22
9.07137323663
32
0
13
56.25
23
9.07137323663
33
0
0
SOLID
5
1E0
100
AcDbEntity
8
Lumber
6
CONTINUOUS
62
7
370
0
100
AcDbTrace
10
59.5
20
9.3211440313
30
0
11
58
21
9.07137323663
31
0
12
58
22
9.57091482596
32
0
13
58
23
9.57091482596
33
0
0
MTEXT
5
1E1
100
AcDbEntity
8
Lumber
6
CONTINUOUS
62
7
370
0
100
AcDbMText
10
62.8125
20
10.5711440313
30
0
40
1.5
41
5.625
71
5
72
1
1
4 3/4
7
standard
210
0
220
0
230
1
50
0
73
2
44
1
0
LINE
5
1E2
100
AcDbEntity
8
Lumber
6
CONTINUOUS
62
7
370
0
100
AcDbLine
10
54.75
20
7.25
11
54.75
21
10.2211440313
0
LINE
5
1E3
100
AcDbEntity
8
Lumber
6
CONTINUOUS
62
7
370
0
100
AcDbLine
10
59.5
20
7.25
11
59.5
21
10.2211440313
0
ENDBLK
5
C8
330
C6
100
AcDbEntity
8
0
100
AcDbBlockEnd
0
BLOCK
5
CA
330
C9
100
AcDbEntity
8
0
100
AcDbBlockBegin
2
*D30
70
1
10
0
20
0
3
*D30
1

0
LINE
5
1E4
100
AcDbEntity
8
Dimension
6
CONTINUOUS
62
7
370
0
100
AcDbLine
10
9.75
20
72.4664431492
11
15.75
21
72.4664431492
0
SOLID
5
1E5
100
AcDbEntity
8
Dimension
6
CONTINUOUS
62
7
370
0
100
AcDbTrace
10
9.75
20
72.4664431492
30
0
11
11.25
21
72.7162139439
31
0
12
11.25
22
72.2166723546
32
0
13
11.25
23
72.2166723546
33
0
0
SOLID
5
1E6
100
AcDbEntity
8
Dimension
6
CONTINUOUS
62
7
370
0
100
AcDbTrace
10
15.75
20
72.4664431492
30
0
11
14.25
21
72.2166723546
31
0
12
14.25
22
72.7162139439
32
0
13
14.25
23
72.7162139439
33
0
0
MTEXT
5
1E7
100
AcDbEntity
8
Dimension
6
CONTINUOUS
62
7
370
0
100
AcDbMText
10
12.75
20
73.7164431492
30
0
40
1.5
41
0.666666666667
71
5
72
1
1
6
7
standard
210
0
220
0
230
1
50
0
73
2
44
1
0
LINE
5
1E8
100
AcDbEntity
8
Dimension
6
CONTINUOUS
62
7
370
0
100
AcDbLine
10
9.75
20
68.25
11
9.75
21
73.3664431492
0
LINE
5
1E9
100
AcDbEntity
8
Dimension
6
CONTINUOUS
62
7
370
0
100
AcDbLine
10
15.75
20
68.25
11
15.75
21
73.3664431492
0
ENDBLK
5
CB
330
C9
100
AcDbEntity
8
0
100
AcDbBlockEnd
0
BLOCK
5
CD
330
CC
100
AcDbEntity
8
0
100
AcDbBlockBegin
2
*D20
70
1
10
0
20
0
3
*D20
1

0
LINE
5
1EA
100
AcDbEntity
8
Dimension
6
CONTINUOUS
62
7
370
0
100
AcDbLine
10
-4
20
28.25
11
-4
21
36.75
0
SOLID
5
1EB
100
AcDbEntity
8
Dimension
6
CONTINUOUS
62
7
370
0
100
AcDbTrace
10
-4
20
28.25
30
0
11
-4.24977079466
21
29.75
31
0
12
-3.75022920534
22
29.75
32
0
13
-3.75022920534
23
29.75
33
0
0
SOLID
5
1EC
100
AcDbEntity
8
Dimension
6
CONTINUOUS
62
7
370
0
100
AcDbTrace
10
-4
20
36.75
30
0
11
-3.75022920534
21
35.25
31
0
12
-4.24977079466
22
35.25
32
0
13
-4.24977079466
23
35.25
33
0
0
MTEXT
5
1ED
100
AcDbEntity
8
Dimension
6
CONTINUOUS
62
7
370
0
100
AcDbMText
10
-5.25
20
32.5
30
0
40
1.5
41
4.95833333333
71
5
72
1
1
8 1/2
7
standard
210
0
220
0
230
1
50
90
73
2
44
1
0
LINE
5
1EE
100
AcDbEntity
8
Dimension
6
CONTINUOUS
62
7
370
0
100
AcDbLine
10
0.25
20
28.25
11
-4.9
21
28.25
0
LINE
5
1EF
100
AcDbEntity
8
Dimension
6
CONTINUOUS
62
7
370
0
100
AcDbLine
10
0.25
20
36.75
11
-4.9
21
36.75
0
ENDBLK
5
CE
330
CC
100
AcDbEntity
8
0
100
AcDbBlockEnd
0
BLOCK
5
D0
330
CF
100
AcDbEntity
8
0
100
AcDbBlockBegin
2
*D32
70
1
10
0
20
0
3
*D32
1

0
LINE
5
1F0
100
AcDbEntity
8
Dimension
6
CONTINUOUS
62
7
370
0
100
AcDbLine
10
5.75
20
78.6424660044
11
19.75
21
78.6424660044
0
SOLID
5
1F1
100
AcDbEntity
8
Dimension
6
CONTINUOUS
62
7
370
0
100
AcDbTrace
10
5.75
20
78.6424660044
30
0
11
7.25
21
78.8922367991
31
0
12
7.25
22
78.3926952097
32
0
13
7.25
23
78.3926952097
33
0
0
SOLID
5
1F2
100
AcDbEntity
8
Dimension
6
CONTINUOUS
62
7
370
0
100
AcDbTrace
10
19.75
20
78.6424660044
30
0
11
18.25
21
78.3926952097
31
0
12
18.25
22
78.8922367991
32
0
13
18.25
23
78.8922367991
33
0
0
MTEXT
5
1F3
100
AcDbEntity
8
Dimension
6
CONTINUOUS
62
7
370
0
100
AcDbMText
10
12.75
20
79.8924660044
30
0
40
1.5
41
1.66666666667
71
5
72
1
1
14
7
standard
210
0
220
0
230
1
50
0
73
2
44
1
0
LINE
5
1F4
100
AcDbEntity
8
Dimension
6
CONTINUOUS
62
7
370
0
100
AcDbLine
10
5.75
20
69.25
11
5.75
21
79.5424660044
0
LINE
5
1F5
100
AcDbEntity
8
Dimension
6
CONTINUOUS
62
7
370
0
100
AcDbLine
10
19.75
20
69.25
11
19.75
21
79.5424660044
0
ENDBLK
5
D1
330
CF
100
AcDbEntity
8
0
100
AcDbBlockEnd
0
BLOCK
5
D3
330
D2
100
AcDbEntity
8
0
100
AcDbBlockBegin
2
*D28
70
1
10
0
20
0
3
*D28
1

0
LINE
5
1F6
100
AcDbEntity
8
Dimension
6
CONTINUOUS
62
7
370
0
100
AcDbLine
10
74.2215744089
20
0
11
74.2215744089
21
68.75
0
SOLID
5
1F7
100
AcDbEntity
8
Dimension
6
CONTINUOUS
62
7
370
0
100
AcDbTrace
10
74.2215744089
20
0
30
0
11
73.9718036142
21
1.5
31
0
12
74.4713452036
22
1.5
32
0
13
74.4713452036
23
1.5
33
0
0
SOLID
5
1F8
100
AcDbEntity
8
Dimension
6
CONTINUOUS
62
7
370
0
100
AcDbTrace
10
74.2215744089
20
68.75
30
0
11
74.4713452036
21
67.25
31
0
12
73.9718036142
22
67.25
32
0
13
73.9718036142
23
67.25
33
0
0
MTEXT
5
1F9
100
AcDbEntity
8
Dimension
6
CONTINUOUS
62
7
370
0
100
AcDbMText
10
72.9715744089
20
34.375
30
0
40
1.5
41
6.625
71
5
72
1
1
68 3/4
7
standard
210
0
220
0
230
1
50
90
73
2
44
1
0
LINE
5
1FA
100
AcDbEntity
8
Dimension
6
CONTINUOUS
62
7
370
0
100
AcDbLine
10
60.5
20
1.67753532009e-15
11
75.1215744089
21
-2.20436423847e-16
0
LINE
5
1FB
100
AcDbEntity
8
Dimension
6
CONTINUOUS
62
7
370
0
100
AcDbLine
10
60.5
20
68.75
11
75.1215744089
21
68.75
0
ENDBLK
5
D4
330
D2
100
AcDbEntity
8
0
100
AcDbBlockEnd
0
BLOCK
5
D6
330
D5
100
AcDbEntity
8
0
100
AcDbBlockBegin
2
*D19
70
1
10
0
20
0
3
*D19
1

0
LINE
5
1FC
100
AcDbEntity
8
Sketch
6
CONTINUOUS
62
7
370
0
100
AcDbLine
10
43.5523982084
20
33.25
11
43.5523982084
21
25.25
0
SOLID
5
1FD
100
AcDbEntity
8
Sketch
6
CONTINUOUS
62
7
370
0
100
AcDbTrace
10
43.5523982084
20
30.25
30
0
11
43.3026274137
21
31.75
31
0
12
43.802169003
22
31.75
32
0
13
43.802169003
23
31.75
33
0
0
SOLID
5
1FE
100
AcDbEntity
8
Sketch
6
CONTINUOUS
62
7
370
0
100
AcDbTrace
10
43.5523982084
20
28.25
30
0
11
43.802169003
21
26.75
31
0
12
43.3026274137
22
26.75
32
0
13
43.3026274137
23
26.75
33
0
0
MTEXT
5
1FF
100
AcDbEntity
8
Sketch
6
CONTINUOUS
62
7
370
0
100
AcDbMText
10
42.3023982084
20
29.25
30
0
40
1.5
41
0.666666666667
71
5
72
1
1
2
7
standard
210
0
220
0
230
1
50
90
73
2
44
1
0
LINE
5
200
100
AcDbEntity
8
Sketch
6
CONTINUOUS
62
7
370
0
100
AcDbLine
10
46.5
20
30.25
11
42.6523982084
21
30.25
0
LINE
5
201
100
AcDbEntity
8
Sketch
6
CONTINUOUS
62
7
370
0
100
AcDbLine
10
48
20
28.25
11
42.6523982084
21
28.25
0
ENDBLK
5
D7
330
D5
100
AcDbEntity
8
0
100
AcDbBlockEnd
0
BLOCK
5
D9
330
D8
100
AcDbEntity
8
0
100
AcDbBlockBegin
2
*D54
70
1
10
0
20
0
3
*D54
1

0
LINE
5
202
100
AcDbEntity
8
Dimension
6
CONTINUOUS
62
7
370
0
100
AcDbLine
10
50.25
20
22.8295900766
11
59.25
21
22.8295900766
0
SOLID
5
203
100
AcDbEntity
8
Dimension
6
CONTINUOUS
62
7
370
0
100
AcDbTrace
10
50.25
20
22.8295900766
30
0
11
51.75
21
23.0793608712
31
0
12
51.75
22
22.5798192819
32
0
13
51.75
23
22.5798192819
33
0
0
SOLID
5
204
100
AcDbEntity
8
Dimension
6
CONTINUOUS
62
7
370
0
100
AcDbTrace
10
59.25
20
22.8295900766
30
0
11
57.75
21
22.5798192819
31
0
12
57.75
22
23.0793608712
32
0
13
57.75
23
23.0793608712
33
0
0
MTEXT
5
205
100
AcDbEntity
8
Dimension
6
CONTINUOUS
62
7
370
0
100
AcDbMText
10
54.75
20
24.0795900766
30
0
40
1.5
41
0.666666666667
71
5
72
1
1
9
7
standard
210
0
220
0
230
1
50
0
73
2
44
1
0
LINE
5
206
100
AcDbEntity
8
Dimension
6
CONTINUOUS
62
7
370
0
100
AcDbLine
10
50.25
20
19
11
50.25
21
23.7295900766
0
LINE
5
207
100
AcDbEntity
8
Dimension
6
CONTINUOUS
62
7
370
0
100
AcDbLine
10
59.25
20
19
11
59.25
21
23.7295900766
0
ENDBLK
5
DA
330
D8
100
AcDbEntity
8
0
100
AcDbBlockEnd
0
BLOCK
5
DC
330
DB
100
AcDbEntity
8
0
100
AcDbBlockBegin
2
*D34
70
1
10
0
20
0
3
*D34
1

0
LINE
5
208
100
AcDbEntity
8
Dimension
6
CONTINUOUS
62
7
370
0
100
AcDbLine
10
-15.725984122
20
0
11
-15.725984122
21
67.75
0
SOLID
5
209
100
AcDbEntity
8
Dimension
6
CONTINUOUS
62
7
370
0
100
AcDbTrace
10
-15.725984122
20
0
30
0
11
-15.9757549166
21
1.5
31
0
12
-15.4762133273
22
1.5
32
0
13
-15.4762133273
23
1.5
33
0
0
SOLID
5
20A
100
AcDbEntity
8
Dimension
6
CONTINUOUS
62
7
370
0
100
AcDbTrace
10
-15.725984122
20
67.75
30
0
11
-15.4762133273
21
66.25
31
0
12
-15.9757549166
22
66.25
32
0
13
-15.9757549166
23
66.25
33
0
0
MTEXT
5
20B
100
AcDbEntity
8
Dimension
6
CONTINUOUS
62
7
370
0
100
AcDbMText
10
-16.975984122
20
33.875
30
0
40
1.5
41
6.625
71
5
72
1
1
67 3/4
7
standard
210
0
220
0
230
1
50
90
73
2
44
1
0
LINE
5
20C
100
AcDbEntity
8
Dimension
6
CONTINUOUS
62
7
370
0
100
AcDbLine
10
-0.5
20
6.12323399574e-17
11
-16.625984122
21
1.10218211923e-16
0
LINE
5
20D
100
AcDbEntity
8
Dimension
6
CONTINUOUS
62
7
370
0
100
AcDbLine
10
9.25
20
67.75
11
-16.625984122
21
67.75
0
ENDBLK
5
DD
330
DB
100
AcDbEntity
8
0
100
AcDbBlockEnd
0
BLOCK
5
DF
330
DE
100
AcDbEntity
8
0
100
AcDbBlockBegin
2
*D33
70
1
10
0
20
0
3
*D33
1

0
LINE
5
20E
100
AcDbEntity
8
Dimension
6
CONTINUOUS
62
7
370
0
100
AcDbLine
10
0.75
20
83.3235898128
11
24.75
21
83.3235898128
0
SOLID
5
20F
100
AcDbEntity
8
Dimension
6
CONTINUOUS
62
7
370
0
100
AcDbTrace
10
0.75
20
83.3235898128
30
0
11
2.25
21
83.5733606075
31
0
12
2.25
22
83.0738190182
32
0
13
2.25
23
83.0738190182
33
0
0
SOLID
5
210
100
AcDbEntity
8
Dimension
6
CONTINUOUS
62
7
370
0
100
AcDbTrace
10
24.75
20
83.3235898128
30
0
11
23.25
21
83.0738190182
31
0
12
23.25
22
83.5733606075
32
0
13
23.25
23
83.5733606075
33
0
0
MTEXT
5
211
100
AcDbEntity
8
Dimension
6
CONTINUOUS
62
7
370
0
100
AcDbMText
10
12.75
20
84.5735898128
30
0
40
1.5
41
2
71
5
72
1
1
24
7
standard
210
0
220
0
230
1
50
0
73
2
44
1
0
LINE
5
212
100
AcDbEntity
8
Dimension
6
CONTINUOUS
62
7
370
0
100
AcDbLine
10
0.75
20
70.75
11
0.75
21
84.2235898128
0
LINE
5
213
100
AcDbEntity
8
Dimension
6
CONTINUOUS
62
7
370
0
100
AcDbLine
10
24.75
20
70.75
11
24.75
21
84.2235898128
0
ENDBLK
5
E0
330
DE
100
AcDbEntity
8
0
100
AcDbBlockEnd
0
BLOCK
5
E2
330
E1
100
AcDbEntity
8
0
100
AcDbBlockBegin
2
*D44
70
1
10
0
20
0
3
*D44
1

0
LINE
5
214
100
AcDbEntity
8
Dimension
6
CONTINUOUS
62
7
370
0
100
AcDbLine
10
0.5
20
108.821239365
11
25
21
108.821239365
0
SOLID
5
215
100
AcDbEntity
8
Dimension
6
CONTINUOUS
62
7
370
0
100
AcDbTrace
10
0.5
20
108.821239365
30
0
11
2
21
109.07101016
31
0
12
2
22
108.571468571
32
0
13
2
23
108.571468571
33
0
0
SOLID
5
216
100
AcDbEntity
8
Dimension
6
CONTINUOUS
62
7
370
0
100
AcDbTrace
10
25
20
108.821239365
30
0
11
23.5
21
108.571468571
31
0
12
23.5
22
109.07101016
32
0
13
23.5
23
109.07101016
33
0
0
MTEXT
5
217
100
AcDbEntity
8
Dimension
6
CONTINUOUS
62
7
370
0
100
AcDbMText
10
12.75
20
110.071239365
30
0
40
1.5
41
6.29166666667
71
5
72
1
1
24 1/2
7
standard
210
0
220
0
230
1
50
0
73
2
44
1
0
LINE
5
218
100
AcDbEntity
8
Dimension
6
CONTINUOUS
62
7
370
0
100
AcDbLine
10
0.5
20
106
11
0.5
21
109.721239365
0
LINE
5
219
100
AcDbEntity
8
Dimension
6
CONTINUOUS
62
7
370
0
100
AcDbLine
10
25
20
106
11
25
21
109.721239365
0
ENDBLK
5
E3
330
E1
100
AcDbEntity
8
0
100
AcDbBlockEnd
0
BLOCK
5
E5
330
E4
100
AcDbEntity
8
0
100
AcDbBlockBegin
2
*D35
70
1
10
0
20
0
3
*D35
1

0
LINE
5
21A
100
AcDbEntity
8
Dimension
6
CONTINUOUS
62
7
370
0
100
AcDbLine
10
-4
20
56
11
-4
21
64.5
0
SOLID
5
21B
100
AcDbEntity
8
Dimension
6
CONTINUOUS
62
7
370
0
100
AcDbTrace
10
-4
20
56
30
0
11
-4.24977079466
21
57.5
31
0
12
-3.75022920534
22
57.5
32
0
13
-3.75022920534
23
57.5
33
0
0
SOLID
5
21C
100
AcDbEntity
8
Dimension
6
CONTINUOUS
62
7
370
0
100
AcDbTrace
10
-4
20
64.5
30
0
11
-3.75022920534
21
63
31
0
12
-4.24977079466
22
63
32
0
13
-4.24977079466
23
63
33
0
0
MTEXT
5
21D
100
AcDbEntity
8
Dimension
6
CONTINUOUS
62
7
370
0
100
AcDbMText
10
-5.25
20
60.25
30
0
40
1.5
41
4.95833333333
71
5
72
1
1
8 1/2
7
standard
210
0
220
0
230
1
50
90
73
2
44
1
0
LINE
5
21E
100
AcDbEntity
8
Dimension
6
CONTINUOUS
62
7
370
0
100
AcDbLine
10
0.25
20
56
11
-4.9
21
56
0
LINE
5
21F
100
AcDbEntity
8
Dimension
6
CONTINUOUS
62
7
370
0
100
AcDbLine
10
0.25
20
64.5
11
-4.9
21
64.5
0
ENDBLK
5
E6
330
E4
100
AcDbEntity
8
0
100
AcDbBlockEnd
0
BLOCK
5
E8
330
E7
100
AcDbEntity
8
0
100
AcDbBlockBegin
2
*D31
70
1
10
0
20
0
3
*D31
1

0
LINE
5
220
100
AcDbEntity
8
Dimension
6
CONTINUOUS
62
7
370
0
100
AcDbLine
10
8.75
20
75.211342196
11
16.75
21
75.211342196
0
SOLID
5
221
100
AcDbEntity
8
Dimension
6
CONTINUOUS
62
7
370
0
100
AcDbTrace
10
8.75
20
75.211342196
30
0
11
10.25
21
75.4611129906
31
0
12
10.25
22
74.9615714013
32
0
13
10.25
23
74.9615714013
33
0
0
SOLID
5
222
100
AcDbEntity
8
Dimension
6
CONTINUOUS
62
7
370
0
100
AcDbTrace
10
16.75
20
75.211342196
30
0
11
15.25
21
74.9615714013
31
0
12
15.25
22
75.4611129906
32
0
13
15.25
23
75.4611129906
33
0
0
MTEXT
5
223
100
AcDbEntity
8
Dimension
6
CONTINUOUS
62
7
370
0
100
AcDbMText
10
12.75
20
76.461342196
30
0
40
1.5
41
0.666666666667
71
5
72
1
1
8
7
standard
210
0
220
0
230
1
50
0
73
2
44
1
0
LINE
5
224
100
AcDbEntity
8
Dimension
6
CONTINUOUS
62
7
370
0
100
AcDbLine
10
8.75
20
70.75
11
8.75
21
76.111342196
0
LINE
5
225
100
AcDbEntity
8
Dimension
6
CONTINUOUS
62
7
370
0
100
AcDbLine
10
16.75
20
70.75
11
16.75
21
76.111342196
0
ENDBLK
5
E9
330
E7
100
AcDbEntity
8
0
100
AcDbBlockEnd
0
BLOCK
5
EB
330
EA
100
AcDbEntity
8
0
100
AcDbBlockBegin
2
*D18
70
1
10
0
20
0
3
*D18
1

0
LINE
5
226
100
AcDbEntity
8
Dimension
6
CONTINUOUS
62
7
370
0
100
AcDbLine
10
-4
20
19
11
-4
21
27.5
0
SOLID
5
227
100
AcDbEntity
8
Dimension
6
CONTINUOUS
62
7
370
0
100
AcDbTrace
10
-4
20
19
30
0
11
-4.24977079466
21
20.5
31
0
12
-3.75022920534
22
20.5
32
0
13
-3.75022920534
23
20.5
33
0
0
SOLID
5
228
100
AcDbEntity
8
Dimension
6
CONTINUOUS
62
7
370
0
100
AcDbTrace
10
-4
20
27.5
30
0
11
-3.75022920534
21
26
31
0
12
-4.24977079466
22
26
32
0
13
-4.24977079466
23
26
33
0
0
MTEXT
5
229
100
AcDbEntity
8
Dimension
6
CONTINUOUS
62
7
370
0
100
AcDbMText
10
-5.25
20
23.25
30
0
40
1.5
41
4.95833333333
71
5
72
1
1
8 1/2
7
standard
210
0
220
0
230
1
50
90
73
2
44
1
0
LINE
5
22A
100
AcDbEntity
8
Dimension
6
CONTINUOUS
62
7
370
0
100
AcDbLine
10
0.25
20
19
11
-4.9
21
19
0
LINE
5
22B
100
AcDbEntity
8
Dimension
6
CONTINUOUS
62
7
370
0
100
AcDbLine
10
0.25
20
27.5
11
-4.9
21
27.5
0
ENDBLK
5
EC
330
EA
100
AcDbEntity
8
0
100
AcDbBlockEnd
0
BLOCK
5
EE
330
ED
100
AcDbEntity
8
0
100
AcDbBlockBegin
2
*D29
70
1
10
0
20
0
3
*D29
1

0
LINE
5
22C
100
AcDbEntity
8
Dimension
6
CONTINUOUS
62
7
370
0
100
AcDbLine
10
33.3531015299
20
0
11
33.3531015299
21
70.25
0
SOLID
5
22D
100
AcDbEntity
8
Dimension
6
CONTINUOUS
62
7
370
0
100
AcDbTrace
10
33.3531015299
20
0
30
0
11
33.1033307352
21
1.5
31
0
12
33.6028723246
22
1.5
32
0
13
33.6028723246
23
1.5
33
0
0
SOLID
5
22E
100
AcDbEntity
8
Dimension
6
CONTINUOUS
62
7
370
0
100
AcDbTrace
10
33.3531015299
20
70.25
30
0
11
33.6028723246
21
68.75
31
0
12
33.1033307352
22
68.75
32
0
13
33.1033307352
23
68.75
33
0
0
MTEXT
5
22F
100
AcDbEntity
8
Dimension
6
CONTINUOUS
62
7
370
0
100
AcDbMText
10
32.1031015299
20
35.125
30
0
40
1.5
41
6.29166666667
71
5
72
1
1
70 1/4
7
standard
210
0
220
0
230
1
50
90
73
2
44
1
0
LINE
5
230
100
AcDbEntity
8
Dimension
6
CONTINUOUS
62
7
370
0
100
AcDbLine
10
44
20
-2.38767660043e-16
11
32.4531015299
21
1.10218211923e-16
0
LINE
5
231
100
AcDbEntity
8
Dimension
6
CONTINUOUS
62
7
370
0
100
AcDbLine
10
46.5
20
70.25
11
32.4531015299
21
70.25
0
ENDBLK
5
EF
330
ED
100
AcDbEntity
8
0
100
AcDbBlockEnd
0
BLOCK
5
F1
330
F0
100
AcDbEntity
8
0
100
AcDbBlockBegin
2
*D36
70
1
10
0
20
0
3
*D36
1

0
LINE
5
232
100
AcDbEntity
8
Dimension
6
CONTINUOUS
62
7
370
0
100
AcDbLine
10
68.8617746871
20
0
11
68.8617746871
21
38.75
0
SOLID
5
233
100
AcDbEntity
8
Dimension
6
CONTINUOUS
62
7
370
0
100
AcDbTrace
10
68.8617746871
20
0
30
0
11
68.6120038924
21
1.5
31
0
12
69.1115454817
22
1.5
32
0
13
69.1115454817
23
1.5
33
0
0
SOLID
5
234
100
AcDbEntity
8
Dimension
6
CONTINUOUS
62
7
370
0
100
AcDbTrace
10
68.8617746871
20
38.75
30
0
11
69.1115454817
21
37.25
31
0
12
68.6120038924
22
37.25
32
0
13
68.6120038924
23
37.25
33
0
0
MTEXT
5
235
100
AcDbEntity
8
Dimension
6
CONTINUOUS
62
7
370
0
100
AcDbMText
10
67.6117746871
20
19.375
30
0
40
1.5
41
6.625
71
5
72
1
1
38 3/4
7
standard
210
0
220
0
230
1
50
90
73
2
44
1
0
LINE
5
236
100
AcDbEntity
8
Dimension
6
CONTINUOUS
62
7
370
0
100
AcDbLine
10
60.5
20
1.67753532009e-15
11
69.7617746871
21
-2.20436423847e-16
0
LINE
5
237
100
AcDbEntity
8
Dimension
6
CONTINUOUS
62
7
370
0
100
AcDbLine
10
50.5
20
38.75
11
69.7617746871
21
38.75
0
ENDBLK
5
F2
330
F0
100
AcDbEntity
8
0
100
AcDbBlockEnd
0
ENDSEC
0
SECTION
2
ENTITIES
0
LINE
5
238
100
AcDbEntity
8
Sketch
6
ByLayer
62
256
370
-1
100
AcDbLine
10
0
20
0
11
25.5
21
0
0
LINE
5
239
100
AcDbEntity
8
Sketch
6
ByLayer
62
256
370
-1
100
AcDbLine
10
4e-16
20
6
11
25.5
21
6
0
LINE
5
23A
100
AcDbEntity
8
Sketch
6
ByLayer
62
256
370
-1
100
AcDbLine
10
4e-16
20
6.75
11
25.5
21
6.75
0
LINE
5
23B
100
AcDbEntity
8
Sketch
6
ByLayer
62
256
370
-1
100
AcDbLine
10
45
20
-4e-16
11
60
21
1.8e-15
0
LINE
5
23C
100
AcDbEntity
8
Outline
6
ByLayer
62
256
370
-1
100
AcDbLine
10
0
20
0
11
0.75
21
0
0
LINE
5
23D
100
AcDbEntity
8
Outline
6
ByLayer
62
256
370
-1
100
AcDbLine
10
24.75
20
0
11
25.5
21
0
0
LINE
5
23E
100
AcDbEntity
8
Outline
6
ByLayer
62
256
370
-1
100
AcDbLine
10
0.75
20
6
11
24.75
21
6
0
LINE
5
23F
100
AcDbEntity
8
Outline
6
ByLayer
62
256
370
-1
100
AcDbLine
10
24.75
20
6
11
24.75
21
6.75
0
LINE
5
240
100
AcDbEntity
8
Outline
6
ByLayer
62
256
370
-1
100
AcDbLine
10
24.75
20
6.75
11
0.75
21
6.75
0
LINE
5
241
100
AcDbEntity
8
Outline
6
ByLayer
62
256
370
-1
100
AcDbLine
10
0.75
20
6.75
11
0.75
21
6
0
LINE
5
242
100
AcDbEntity
8
Outline
6
ByLayer
62
256
370
-1
100
AcDbLine
10
60
20
1.8e-15
11
56
21
1.2e-15
0
LINE
5
243
100
AcDbEntity
8
Sketch
6
ByLayer
62
256
370
-1
100
AcDbLine
10
0.75
20
4
11
60
21
4
0
LINE
5
244
100
AcDbEntity
8
Outline
6
ByLayer
62
256
370
-1
100
AcDbLine
10
0.75
20
4
11
24.75
21
4
0
LINE
5
245
100
AcDbEntity
8
Outline
6
ByLayer
62
256
370
-1
100
AcDbLine
10
56
20
1.2e-15
11
55
21
4
0
DIMENSION
5
246
100
AcDbEntity
8
Dimension
6
ByLayer
62
256
370
-1
100
AcDbDimension
2
*D1
10
-8
20
6
30
0
11
-9.25
21
3
31
0
70
32
71
5
3
Standard
53
0
210
0
220
0
230
1
100
AcDbAlignedDimension
13
0
23
0
33
0
14
0.75
24
6
34
0
50
90
100
AcDbRotatedDimension
0
LINE
5
247
100
AcDbEntity
8
Lumber
6
ByLayer
62
256
370
-1
100
AcDbLine
10
17.75
20
107.25
11
17.75
21
108
0
LINE
5
248
100
AcDbEntity
8
Lumber
6
ByLayer
62
256
370
-1
100
AcDbLine
10
10.5
20
107.25
11
10.5
21
108
0
LINE
5
249
100
AcDbEntity
8
Lumber
6
ByLayer
62
256
370
-1
100
AcDbLine
10
3.25
20
107.25
11
3.25
21
108
0
LINE
5
24A
100
AcDbEntity
8
Lumber
6
ByLayer
62
256
370
-1
100
AcDbLine
10
25
20
102
11
0.5
21
102
0
DIMENSION
5
24B
100
AcDbEntity
8
Lumber
6
ByLayer
62
256
370
-1
100
AcDbDimension
2
*D2
10
60
20
15.0633675661
30
0
11
56.375
21
16.3133675661
31
0
70
32
71
5
3
Standard
53
0
210
0
220
0
230
1
100
AcDbAlignedDimension
13
52.75
23
2.7e-15
33
0
14
60
24
1.8e-15
34
0
100
AcDbRotatedDimension
0
LINE
5
24C
100
AcDbEntity
8
Sketch
6
ByLayer
62
256
370
-1
100
AcDbLine
10
45.5
20
-3e-16
11
47.5
21
-3e-16
0
LINE
5
24D
100
AcDbEntity
8
Sketch
6
ByLayer
62
256
370
-1
100
AcDbLine
10
45.5
20
-3e-16
11
48.5
21
-3e-16
0
DIMENSION
5
24E
100
AcDbEntity
8
Lumber
6
ByLayer
62
256
370
-1
100
AcDbDimension
2
*D3
10
20
20
12.2648453728
30
0
11
16.375
21
13.5148453728
31
0
70
32
71
5
3
Standard
53
0
210
0
220
0
230
1
100
AcDbAlignedDimension
13
12.75
23
4
33
0
14
20
24
4
34
0
100
AcDbRotatedDimension
0
LINE
5
24F
100
AcDbEntity
8
Outline
6
ByLayer
62
256
370
-1
100
AcDbLine
10
49
20
4
11
48
21
1e-16
0
LINE
5
250
100
AcDbEntity
8
Outline
6
ByLayer
62
256
370
-1
100
AcDbLine
10
55
20
4
11
49
21
4
0
LINE
5
251
100
AcDbEntity
8
Outline
6
ByLayer
62
256
370
-1
100
AcDbLine
10
48
20
1e-16
11
44.5
21
-3e-16
0
DIMENSION
5
252
100
AcDbEntity
8
Dimension
6
ByLayer
62
256
370
-1
100
AcDbDimension
2
*D4
10
64.3496368188
20
4
30
0
11
63.0996368188
21
2
31
0
70
32
71
5
72
0
3
Standard
53
0
210
0
220
0
230
1
100
AcDbAlignedDimension
13
60
23
1.8e-15
33
0
14
60
24
4
34
0
50
90
100
AcDbRotatedDimension
0
DIMENSION
5
253
100
AcDbEntity
8
Dimension
6
ByLayer
62
256
370
-1
100
AcDbDimension
2
*D5
10
47.5
20
-9.46318188511
30
0
11
53.75
21
-8.21318188511
31
0
70
32
71
5
72
0
3
Standard
53
0
210
0
220
0
230
1
100
AcDbAlignedDimension
13
60
23
1.8e-15
33
0
14
47.5
24
6
34
0
100
AcDbRotatedDimension
0
DIMENSION
5
254
100
AcDbEntity
8
Dimension
6
ByLayer
62
256
370
-1
100
AcDbDimension
2
*D6
10
44.5
20
-13.8568020461
30
0
11
52.25
21
-12.6068020461
31
0
70
32
71
5
72
0
3
Standard
53
0
210
0
220
0
230
1
100
AcDbAlignedDimension
13
60
23
1.8e-15
33
0
14
44.5
24
-3e-16
34
0
100
AcDbRotatedDimension
0
DIMENSION
5
255
100
AcDbEntity
8
Dimension
6
ByLayer
62
256
370
-1
100
AcDbDimension
2
*D7
10
56
20
-4.8307290385
30
0
11
55.5
21
-3.5807290385
31
0
70
32
1
2X <>
71
5
72
0
3
Standard
53
0
210
0
220
0
230
1
100
AcDbAlignedDimension
13
55
23
4
33
0
14
56
24
1.2e-15
34
0
100
AcDbRotatedDimension
0
DIMENSION
5
256
100
AcDbEntity
8
Dimension
6
ByLayer
62
256
370
-1
100
AcDbDimension
2
*D8
10
60
20
-4.8307290385
30
0
11
58
21
-3.5807290385
31
0
70
32
1
2X <>
71
5
72
0
3
Standard
53
0
210
0
220
0
230
1
100
AcDbAlignedDimension
13
56
23
1.2e-15
33
0
14
60
24
1.8e-15
34
0
100
AcDbRotatedDimension
0
DIMENSION
5
257
100
AcDbEntity
8
Lumber
6
ByLayer
62
256
370
-1
100
AcDbDimension
2
*D9
10
47.25
20
15.0633675661
30
0
11
50
21
16.3133675661
31
0
70
32
71
5
72
0
3
Standard
53
0
210
0
220
0
230
1
100
AcDbAlignedDimension
13
52.75
23
2.7e-15
33
0
14
47.25
24
3.4e-15
34
0
100
AcDbRotatedDimension
0
DIMENSION
5
258
100
AcDbEntity
8
Lumber
6
ByLayer
62
256
370
-1
100
AcDbDimension
2
*D10
10
25.5
20
12.2648453728
30
0
11
22.75
21
13.5148453728
31
0
70
32
71
5
72
0
3
Standard
53
0
210
0
220
0
230
1
100
AcDbAlignedDimension
13
20
23
-1.8e-15
33
0
14
25.5
24
-3.1e-15
34
0
100
AcDbRotatedDimension
0
DIMENSION
5
259
100
AcDbEntity
8
Lumber
6
ByLayer
62
256
370
-1
100
AcDbDimension
2
*D11
10
44.5
20
19.2508157206
30
0
11
45.875
21
20.5008157206
31
0
70
32
71
5
72
0
3
Standard
53
0
210
0
220
0
230
1
100
AcDbAlignedDimension
13
47.25
23
3.4e-15
33
0
14
44.5
24
-3e-16
34
0
100
AcDbRotatedDimension
0
LINE
5
25A
100
AcDbEntity
8
Lumber
6
ByLayer
62
256
370
-1
100
AcDbLine
10
54.75
20
6.75
11
54.75
21
6
0
DIMENSION
5
25B
100
AcDbEntity
8
Lumber
6
ByLayer
62
256
370
-1
100
AcDbDimension
2
*D12
10
54.75
20
9.3211440313
30
0
11
51.125
21
10.5711440313
31
0
70
32
71
5
72
0
3
Standard
53
0
210
0
220
0
230
1
100
AcDbAlignedDimension
13
47.5
23
6.75
33
0
14
54.75
24
6.75
34
0
100
AcDbRotatedDimension
0
DIMENSION
5
25C
100
AcDbEntity
8
Lumber
6
ByLayer
62
256
370
-1
100
AcDbDimension
2
*D13
10
59.5
20
9.3211440313
30
0
11
57.125
21
10.5711440313
31
0
70
32
71
5
72
0
3
Standard
53
0
210
0
220
0
230
1
100
AcDbAlignedDimension
13
54.75
23
6.75
33
0
14
59.5
24
6.75
34
0
100
AcDbRotatedDimension
0
LINE
5
25D
100
AcDbEntity
8
Lumber
6
ByLayer
62
256
370
-1
100
AcDbLine
10
12.75
20
74
11
12.75
21
0
0
LINE
5
25E
100
AcDbEntity
8
Lumber
6
ByLayer
62
256
370
-1
100
AcDbLine
10
20
20
74
11
20
21
-1.8e-15
0
LINE
5
25F
100
AcDbEntity
8
Lumber
6
ByLayer
62
256
370
-1
100
AcDbLine
10
5.5
20
74
11
5.5
21
2.7e-15
0
LINE
5
260
100
AcDbEntity
8
Lumber
6
ByLayer
62
256
370
-1
100
AcDbLine
10
52.75
20
2.7e-15
11
52.75
21
74
0
LINE
5
261
100
AcDbEntity
8
Lumber
6
ByLayer
62
256
370
-1
100
AcDbLine
10
47.25
20
3.4e-15
11
47.25
21
74
0
LINE
5
262
100
AcDbEntity
8
Lumber
6
ByLayer
62
256
370
-1
100
AcDbLine
10
25.5
20
74
11
25.5
21
-3.1e-15
0
LINE
5
263
100
AcDbEntity
8
Lumber
6
ByLayer
62
256
370
-1
100
AcDbLine
10
0
20
74
11
0
21
4.7e-15
0
LINE
5
264
100
AcDbEntity
8
Lumber
6
ByLayer
62
256
370
-1
100
AcDbLine
10
25.5
20
70.5
11
-4e-16
21
70.5
0
LINE
5
265
100
AcDbEntity
8
Lumber
6
ByLayer
62
256
370
-1
100
AcDbLine
10
12.75
20
72.5
11
9.75
21
72.5
0
LINE
5
266
100
AcDbEntity
8
Lumber
6
ByLayer
62
256
370
-1
100
AcDbLine
10
9.75
20
72.5
11
9.75
21
70.5
0
DIMENSION
5
267
100
AcDbEntity
8
Lumber
6
ByLayer
62
256
370
-1
100
AcDbDimension
2
*D14
10
30.4488823989
20
102
30
0
11
29.1988823989
21
104.75
31
0
70
32
71
5
3
Standard
53
0
210
0
220
0
230
1
100
AcDbAlignedDimension
13
25
23
107.5
33
0
14
25
24
102
34
0
50
90
100
AcDbRotatedDimension
0
DIMENSION
5
268
100
AcDbEntity
8
Lumber
6
ByLayer
62
256
370
-1
100
AcDbDimension
2
*D15
10
30.5525586577
20
96.5
30
0
11
29.3025586577
21
99.75
31
0
70
32
71
5
72
0
3
Standard
53
0
210
0
220
0
230
1
100
AcDbAlignedDimension
13
25
23
102
33
0
14
24.75
24
97.5
34
0
50
90
100
AcDbRotatedDimension
0
LINE
5
269
100
AcDbEntity
8
Sketch
6
ByLayer
62
256
370
-1
100
AcDbLine
10
48
20
93.5
11
0
21
93.5
0
LINE
5
26A
100
AcDbEntity
8
Sketch
6
ByLayer
62
256
370
-1
100
AcDbLine
10
48
20
93.5
11
60
21
105.5
0
LINE
5
26B
100
AcDbEntity
8
Sketch
6
ByLayer
62
256
370
-1
100
AcDbLine
10
0
20
105.5
11
60
21
105.5
0
LINE
5
26C
100
AcDbEntity
8
Sketch
6
ByLayer
62
256
370
-1
100
AcDbLine
10
-3e-16
20
104.75
11
60
21
104.75
0
LINE
5
26D
100
AcDbEntity
8
Sketch
6
ByLayer
62
256
370
-1
100
AcDbLine
10
48
20
92
11
-3e-16
21
92
0
LINE
5
26E
100
AcDbEntity
8
Sketch
6
ByLayer
62
256
370
-1
100
AcDbLine
10
48
20
90.5
11
-6e-16
21
90.5
0
LINE
5
26F
100
AcDbEntity
8
Outline
6
ByLayer
62
256
370
-1
100
AcDbLine
10
0
20
105.5
11
0.75
21
105.5
0
LINE
5
270
100
AcDbEntity
8
Outline
6
ByLayer
62
256
370
-1
100
AcDbLine
10
24.75
20
105.5
11
25.5
21
105.5
0
LINE
5
271
100
AcDbEntity
8
Outline
6
ByLayer
62
256
370
-1
100
AcDbLine
10
0.75
20
105.5
11
24.75
21
105.5
0
LINE
5
272
100
AcDbEntity
8
Sketch
6
ByLayer
62
256
370
-1
100
AcDbLine
10
0.75
20
105.5
11
0.75
21
4
0
LINE
5
273
100
AcDbEntity
8
Outline
6
ByLayer
62
256
370
-1
100
AcDbLine
10
0
20
92
11
0.75
21
92
0
LINE
5
274
100
AcDbEntity
8
Outline
6
ByLayer
62
256
370
-1
100
AcDbLine
10
24.75
20
92
11
25.5
21
92
0
LINE
5
275
100
AcDbEntity
8
Sketch
6
ByLayer
62
256
370
-1
100
AcDbLine
10
0.5
20
105.5
11
0.5
21
90.5
0
LINE
5
276
100
AcDbEntity
8
Sketch
6
ByLayer
62
256
370
-1
100
AcDbLine
10
-2e-16
20
105
11
60
21
105
0
LINE
5
277
100
AcDbEntity
8
Sketch
6
ByLayer
62
256
370
-1
100
AcDbLine
10
48
20
94.5
11
3e-16
21
94.5
0
LINE
5
278
100
AcDbEntity
8
Outline
6
ByLayer
62
256
370
-1
100
AcDbLine
10
0.75
20
104.75
11
24.75
21
104.75
0
LINE
5
279
100
AcDbEntity
8
Outline
6
ByLayer
62
256
370
-1
100
AcDbLine
10
24.75
20
104.75
11
0.75
21
104.75
0
LINE
5
27A
100
AcDbEntity
8
Dimension
6
ByLayer
62
256
370
-1
100
AcDbLine
10
0.75
20
104.75
11
0.5
21
104.75
0
LINE
5
27B
100
AcDbEntity
8
Dimension
6
ByLayer
62
256
370
-1
100
AcDbLine
10
0.5
20
104.75
11
0.5
21
105.5
0
LINE
5
27C
100
AcDbEntity
8
Dimension
6
ByLayer
62
256
370
-1
100
AcDbLine
10
24.75
20
104.75
11
25
21
104.75
0
LINE
5
27D
100
AcDbEntity
8
Dimension
6
ByLayer
62
256
370
-1
100
AcDbLine
10
25
20
104.75
11
25
21
105.5
0
LINE
5
27E
100
AcDbEntity
8
Sketch
6
ByLayer
62
256
370
-1
100
AcDbLine
10
12.75
20
105.5
11
12.75
21
0
0
LINE
5
27F
100
AcDbEntity
8
Outline
6
ByLayer
62
256
370
-1
100
AcDbLine
10
44.5
20
9.5
11
44.5
21
-3e-16
0
DIMENSION
5
280
100
AcDbEntity
8
Dimension
6
ByLayer
62
256
370
-1
100
AcDbDimension
2
*D16
10
41.2471543811
20
12
30
0
11
39.9971543811
21
4.75
31
0
70
32
71
5
3
Standard
53
0
210
0
220
0
230
1
100
AcDbAlignedDimension
13
44.5
23
-3e-16
33
0
14
44.5
24
9.5
34
0
50
90
100
AcDbRotatedDimension
0
LINE
5
281
100
AcDbEntity
8
Outline
6
ByLayer
62
256
370
-1
100
AcDbLine
10
0.75
20
89.5
11
0
21
89.5
0
LINE
5
282
100
AcDbEntity
8
Outline
6
ByLayer
62
256
370
-1
100
AcDbLine
10
0
20
89.5
11
0
21
105.5
0
LINE
5
283
100
AcDbEntity
8
Outline
6
ByLayer
62
256
370
-1
100
AcDbLine
10
25.5
20
105.5
11
25.5
21
89.5
0
LINE
5
284
100
AcDbEntity
8
Outline
6
ByLayer
62
256
370
-1
100
AcDbLine
10
25.5
20
89.5
11
24.75
21
89.5
0
LINE
5
285
100
AcDbEntity
8
Outline
6
ByLayer
62
256
370
-1
100
AcDbLine
10
0.75
20
104.75
11
0.75
21
89.5
0
LINE
5
286
100
AcDbEntity
8
Outline
6
ByLayer
62
256
370
-1
100
AcDbLine
10
24.75
20
89.5
11
24.75
21
104.75
0
LINE
5
287
100
AcDbEntity
8
Sketch
6
ByLayer
62
256
370
-1
100
AcDbLine
10
-48
20
93
11
25.5
21
93
0
LINE
5
288
100
AcDbEntity
8
Sketch
6
ByLayer
62
256
370
-1
100
AcDbLine
10
25.5
20
93
11
25.5
21
105.5
0
DIMENSION
5
289
100
AcDbEntity
8
Dimension
6
ByLayer
62
256
370
-1
100
AcDbDimension
2
*D17
10
-4
20
22.75
30
0
11
-5.25
21
12.5
31
0
70
32
71
5
72
0
3
Standard
53
0
210
0
220
0
230
1
100
AcDbAlignedDimension
13
0.75
23
6.75
33
0
14
0.75
24
18.25
34
0
50
90
100
AcDbRotatedDimension
0
LINE
5
28A
100
AcDbEntity
8
Sketch
6
ByLayer
62
256
370
-1
100
AcDbLine
10
1.4e-15
20
19
11
60
21
19
0
LINE
5
28B
100
AcDbEntity
8
Outline
6
ByLayer
62
256
370
-1
100
AcDbLine
10
0.75
20
18.25
11
24.75
21
18.25
0
LINE
5
28C
100
AcDbEntity
8
Outline
6
ByLayer
62
256
370
-1
100
AcDbLine
10
24.75
20
18.25
11
24.75
21
19
0
LINE
5
28D
100
AcDbEntity
8
Outline
6
ByLayer
62
256
370
-1
100
AcDbLine
10
24.75
20
19
11
0.75
21
19
0
LINE
5
28E
100
AcDbEntity
8
Outline
6
ByLayer
62
256
370
-1
100
AcDbLine
10
0.75
20
19
11
0.75
21
18.25
0
LINE
5
28F
100
AcDbEntity
8
Sketch
6
ByLayer
62
256
370
-1
100
AcDbLine
10
47.5
20
30
11
45.5
21
30
0
LINE
5
290
100
AcDbEntity
8
Sketch
6
ByLayer
62
256
370
-1
100
AcDbLine
10
45.5
20
30
11
45.5
21
-3e-16
0
LINE
5
291
100
AcDbEntity
8
Sketch
6
ByLayer
62
256
370
-1
100
AcDbLine
10
48.5
20
-3e-16
11
48.5
21
30
0
LINE
5
292
100
AcDbEntity
8
Sketch
6
ByLayer
62
256
370
-1
100
AcDbLine
10
48.5
20
30
11
45.5
21
30
0
LINE
5
293
100
AcDbEntity
8
Sketch
6
ByLayer
62
256
370
-1
100
AcDbLine
10
45.5
20
30
11
45.5
21
-3e-16
0
LINE
5
294
100
AcDbEntity
8
Sketch
6
ByLayer
62
256
370
-1
100
AcDbLine
10
1.4e-15
20
27.5
11
60
21
27.5
0
LINE
5
295
100
AcDbEntity
8
Sketch
6
ByLayer
62
256
370
-1
100
AcDbLine
10
1.4e-15
20
28.25
11
60
21
28.25
0
LINE
5
296
100
AcDbEntity
8
Outline
6
ByLayer
62
256
370
-1
100
AcDbLine
10
0.75
20
27.5
11
24.75
21
27.5
0
LINE
5
297
100
AcDbEntity
8
Outline
6
ByLayer
62
256
370
-1
100
AcDbLine
10
24.75
20
27.5
11
24.75
21
28.25
0
LINE
5
298
100
AcDbEntity
8
Outline
6
ByLayer
62
256
370
-1
100
AcDbLine
10
24.75
20
28.25
11
0.75
21
28.25
0
LINE
5
299
100
AcDbEntity
8
Outline
6
ByLayer
62
256
370
-1
100
AcDbLine
10
0.75
20
28.25
11
0.75
21
27.5
0
LINE
5
29A
100
AcDbEntity
8
Sketch
6
ByLayer
62
256
370
-1
100
AcDbLine
10
47
20
28.25
11
49
21
28.25
0
LINE
5
29B
100
AcDbEntity
8
Sketch
6
ByLayer
62
256
370
-1
100
AcDbLine
10
47
20
28.25
11
49
21
28.25
0
DIMENSION
5
29C
100
AcDbEntity
8
Dimension
6
ByLayer
62
256
370
-1
100
AcDbDimension
2
*D18
10
-4
20
35
30
0
11
-5.25
21
23.25
31
0
70
32
71
5
72
0
3
Standard
53
0
210
0
220
0
230
1
100
AcDbAlignedDimension
13
0.75
23
19
33
0
14
0.75
24
27.5
34
0
50
90
100
AcDbRotatedDimension
0
LINE
5
29D
100
AcDbEntity
8
Sketch
6
ByLayer
62
256
370
-1
100
AcDbLine
10
49
20
30.25
11
47
21
30.25
0
LINE
5
29E
100
AcDbEntity
8
Sketch
6
ByLayer
62
256
370
-1
100
AcDbLine
10
49
20
34.25
11
47
21
34.25
0
LINE
5
29F
100
AcDbEntity
8
Sketch
6
ByLayer
62
256
370
-1
100
AcDbLine
10
49
20
30.25
11
51
21
30.25
0
LINE
5
2A0
100
AcDbEntity
8
Sketch
6
ByLayer
62
256
370
-1
100
AcDbLine
10
51
20
30.25
11
51
21
36.25
0
LINE
5
2A1
100
AcDbEntity
8
Sketch
6
ByLayer
62
256
370
-1
100
AcDbLine
10
51
20
36.25
11
49
21
36.25
0
LINE
5
2A2
100
AcDbEntity
8
Sketch
6
ByLayer
62
256
370
-1
100
AcDbLine
10
49
20
36.25
11
49
21
30.25
0
LINE
5
2A3
100
AcDbEntity
8
Sketch
6
ByLayer
62
256
370
-1
100
AcDbLine
10
47
20
30.25
11
47
21
28.25
0
LINE
5
2A4
100
AcDbEntity
8
Sketch
6
ByLayer
62
256
370
-1
100
AcDbLine
10
49
20
28.25
11
49
21
34.25
0
LINE
5
2A5
100
AcDbEntity
8
Sketch
6
ByLayer
62
256
370
-1
100
AcDbLine
10
47
20
34.25
11
47
21
28.25
0
DIMENSION
5
2A6
100
AcDbEntity
8
Sketch
6
ByLayer
62
256
370
-1
100
AcDbDimension
2
*D19
10
43.5523982084
20
28.25
30
0
11
42.3023982084
21
29.25
31
0
70
32
71
5
3
Standard
53
0
210
0
220
0
230
1
100
AcDbAlignedDimension
13
47
23
30.25
33
0
14
48.5
24
28.25
34
0
50
90
100
AcDbRotatedDimension
0
LINE
5
2A7
100
AcDbEntity
8
Sketch
6
ByLayer
62
256
370
-1
100
AcDbLine
10
3.1e-15
20
36.75
11
60
21
36.75
0
LINE
5
2A8
100
AcDbEntity
8
Sketch
6
ByLayer
62
256
370
-1
100
AcDbLine
10
3.1e-15
20
37.5
11
60
21
37.5
0
LINE
5
2A9
100
AcDbEntity
8
Outline
6
ByLayer
62
256
370
-1
100
AcDbLine
10
0.75
20
36.75
11
24.75
21
36.75
0
LINE
5
2AA
100
AcDbEntity
8
Outline
6
ByLayer
62
256
370
-1
100
AcDbLine
10
24.75
20
36.75
11
24.75
21
37.5
0
LINE
5
2AB
100
AcDbEntity
8
Outline
6
ByLayer
62
256
370
-1
100
AcDbLine
10
24.75
20
37.5
11
0.75
21
37.5
0
LINE
5
2AC
100
AcDbEntity
8
Outline
6
ByLayer
62
256
370
-1
100
AcDbLine
10
0.75
20
37.5
11
0.75
21
36.75
0
DIMENSION
5
2AD
100
AcDbEntity
8
Dimension
6
ByLayer
62
256
370
-1
100
AcDbDimension
2
*D20
10
-4
20
44.25
30
0
11
-5.25
21
32.5
31
0
70
32
71
5
72
0
3
Standard
53
0
210
0
220
0
230
1
100
AcDbAlignedDimension
13
0.75
23
28.25
33
0
14
0.75
24
36.75
34
0
50
90
100
AcDbRotatedDimension
0
LINE
5
2AE
100
AcDbEntity
8
Sketch
6
ByLayer
62
256
370
-1
100
AcDbLine
10
3.7e-15
20
46
11
60
21
46
0
LINE
5
2AF
100
AcDbEntity
8
Sketch
6
ByLayer
62
256
370
-1
100
AcDbLine
10
3.8e-15
20
46.75
11
60
21
46.75
0
LINE
5
2B0
100
AcDbEntity
8
Outline
6
ByLayer
62
256
370
-1
100
AcDbLine
10
0.75
20
46
11
24.75
21
46
0
LINE
5
2B1
100
AcDbEntity
8
Outline
6
ByLayer
62
256
370
-1
100
AcDbLine
10
24.75
20
46
11
24.75
21
46.75
0
LINE
5
2B2
100
AcDbEntity
8
Outline
6
ByLayer
62
256
370
-1
100
AcDbLine
10
24.75
20
46.75
11
0.75
21
46.75
0
LINE
5
2B3
100
AcDbEntity
8
Outline
6
ByLayer
62
256
370
-1
100
AcDbLine
10
0.75
20
46.75
11
0.75
21
46
0
DIMENSION
5
2B4
100
AcDbEntity
8
Dimension
6
ByLayer
62
256
370
-1
100
AcDbDimension
2
*D21
10
-4
20
55
30
0
11
-5.25
21
41.75
31
0
70
32
71
5
72
0
3
Standard
53
0
210
0
220
0
230
1
100
AcDbAlignedDimension
13
0.75
23
37.5
33
0
14
0.75
24
46
34
0
50
90
100
AcDbRotatedDimension
0
LINE
5
2B5
100
AcDbEntity
8
Sketch
6
ByLayer
62
256
370
-1
100
AcDbLine
10
4.3e-15
20
55.25
11
60
21
55.25
0
LINE
5
2B6
100
AcDbEntity
8
Sketch
6
ByLayer
62
256
370
-1
100
AcDbLine
10
4.4e-15
20
56
11
60
21
56
0
LINE
5
2B7
100
AcDbEntity
8
Outline
6
ByLayer
62
256
370
-1
100
AcDbLine
10
0.75
20
56
11
24.75
21
56
0
LINE
5
2B8
100
AcDbEntity
8
Outline
6
ByLayer
62
256
370
-1
100
AcDbLine
10
24.75
20
56
11
24.75
21
55.25
0
LINE
5
2B9
100
AcDbEntity
8
Outline
6
ByLayer
62
256
370
-1
100
AcDbLine
10
24.75
20
55.25
11
0.75
21
55.25
0
LINE
5
2BA
100
AcDbEntity
8
Outline
6
ByLayer
62
256
370
-1
100
AcDbLine
10
0.75
20
55.25
11
0.75
21
56
0
DIMENSION
5
2BB
100
AcDbEntity
8
Dimension
6
ByLayer
62
256
370
-1
100
AcDbDimension
2
*D22
10
-4
20
55.25
30
0
11
-5.25
21
51
31
0
70
32
71
5
3
Standard
53
0
210
0
220
0
230
1
100
AcDbAlignedDimension
13
0.75
23
46.75
33
0
14
0.75
24
55.25
34
0
50
90
100
AcDbRotatedDimension
0
LINE
5
2BC
100
AcDbEntity
8
Sketch
6
ByLayer
62
256
370
-1
100
AcDbLine
10
60
20
65.25
11
48
21
65.25
0
LINE
5
2BD
100
AcDbEntity
8
Sketch
6
ByLayer
62
256
370
-1
100
AcDbLine
10
60
20
64.5
11
48
21
64.5
0
DIMENSION
5
2BE
100
AcDbEntity
8
Dimension
6
ByLayer
62
256
370
-1
100
AcDbDimension
2
*D23
10
-8
20
68
30
0
11
-9.25
21
36
31
0
70
32
71
5
72
0
3
Standard
53
0
210
0
220
0
230
1
100
AcDbAlignedDimension
13
0.75
23
6.75
33
0
14
0.75
24
65.25
34
0
50
90
100
AcDbRotatedDimension
0
LINE
5
2BF
100
AcDbEntity
8
Sketch
6
ByLayer
62
256
370
-1
100
AcDbLine
10
60
20
64.5
11
-9e-16
21
64.5
0
LINE
5
2C0
100
AcDbEntity
8
Sketch
6
ByLayer
62
256
370
-1
100
AcDbLine
10
0
20
68.75
11
0
21
0
0
LINE
5
2C1
100
AcDbEntity
8
Sketch
6
ByLayer
62
256
370
-1
100
AcDbLine
10
0
20
105.5
11
0
21
68.75
0
LINE
5
2C2
100
AcDbEntity
8
Sketch
6
ByLayer
62
256
370
-1
100
AcDbLine
10
0.75
20
68.75
11
0.75
21
-2e-16
0
LINE
5
2C3
100
AcDbEntity
8
Sketch
6
ByLayer
62
256
370
-1
100
AcDbLine
10
59.25
20
1.9e-15
11
59.25
21
68.75
0
LINE
5
2C4
100
AcDbEntity
8
Sketch
6
ByLayer
62
256
370
-1
100
AcDbLine
10
60
20
1.8e-15
11
60
21
68.75
0
LINE
5
2C5
100
AcDbEntity
8
Sketch
6
ByLayer
62
256
370
-1
100
AcDbLine
10
60
20
68.75
11
48
21
68.75
0
LINE
5
2C6
100
AcDbEntity
8
Sketch
6
ByLayer
62
256
370
-1
100
AcDbLine
10
25.5
20
65.25
11
-7e-16
21
65.25
0
LINE
5
2C7
100
AcDbEntity
8
Sketch
6
ByLayer
62
256
370
-1
100
AcDbLine
10
25.5
20
0
11
25.5
21
68.75
0
LINE
5
2C8
100
AcDbEntity
8
Sketch
6
ByLayer
62
256
370
-1
100
AcDbLine
10
25.5
20
68.75
11
0
21
68.75
0
LINE
5
2C9
100
AcDbEntity
8
Sketch
6
ByLayer
62
256
370
-1
100
AcDbLine
10
0
20
68.75
11
25.5
21
68.75
0
LINE
5
2CA
100
AcDbEntity
8
Sketch
6
ByLayer
62
256
370
-1
100
AcDbLine
10
24.75
20
1e-16
11
24.75
21
68.75
0
LINE
5
2CB
100
AcDbEntity
8
Sketch
6
ByLayer
62
256
370
-1
100
AcDbLine
10
24.75
20
68.75
11
24.75
21
105.5
0
LINE
5
2CC
100
AcDbEntity
8
Sketch
6
ByLayer
62
256
370
-1
100
AcDbLine
10
60
20
70.25
11
46.5
21
70.25
0
LINE
5
2CD
100
AcDbEntity
8
Sketch
6
ByLayer
62
256
370
-1
100
AcDbLine
10
46.5
20
70.25
11
51.5
21
70.25
0
LINE
5
2CE
100
AcDbEntity
8
Sketch
6
ByLayer
62
256
370
-1
100
AcDbLine
10
51.5
20
70.25
11
54
21
68.75
0
LINE
5
2CF
100
AcDbEntity
8
Sketch
6
ByLayer
62
256
370
-1
100
AcDbLine
10
25.5
20
70.25
11
5e-16
21
70.25
0
LINE
5
2D0
100
AcDbEntity
8
Outline
6
ByLayer
62
256
370
-1
100
AcDbLine
10
60
20
1.8e-15
11
60
21
68.75
0
LINE
5
2D1
100
AcDbEntity
8
Outline
6
ByLayer
62
256
370
-1
100
AcDbLine
10
0.75
20
0
11
0.75
21
70.25
0
LINE
5
2D2
100
AcDbEntity
8
Outline
6
ByLayer
62
256
370
-1
100
AcDbLine
10
0.75
20
70.25
11
0
21
70.25
0
LINE
5
2D3
100
AcDbEntity
8
Outline
6
ByLayer
62
256
370
-1
100
AcDbLine
10
0
20
70.25
11
0
21
0
0
LINE
5
2D4
100
AcDbEntity
8
Outline
6
ByLayer
62
256
370
-1
100
AcDbLine
10
25.5
20
0
11
25.5
21
70.25
0
LINE
5
2D5
100
AcDbEntity
8
Outline
6
ByLayer
62
256
370
-1
100
AcDbLine
10
25.5
20
70.25
11
24.75
21
70.25
0
LINE
5
2D6
100
AcDbEntity
8
Outline
6
ByLayer
62
256
370
-1
100
AcDbLine
10
24.75
20
70.25
11
24.75
21
0
0
LINE
5
2D7
100
AcDbEntity
8
Outline
6
ByLayer
62
256
370
-1
100
AcDbLine
10
0.75
20
64.5
11
24.75
21
64.5
0
LINE
5
2D8
100
AcDbEntity
8
Outline
6
ByLayer
62
256
370
-1
100
AcDbLine
10
24.75
20
64.5
11
24.75
21
65.25
0
LINE
5
2D9
100
AcDbEntity
8
Outline
6
ByLayer
62
256
370
-1
100
AcDbLine
10
24.75
20
65.25
11
0.75
21
65.25
0
LINE
5
2DA
100
AcDbEntity
8
Outline
6
ByLayer
62
256
370
-1
100
AcDbLine
10
0.75
20
65.25
11
0.75
21
64.5
0
LINE
5
2DB
100
AcDbEntity
8
Sketch
6
ByLayer
62
256
370
-1
100
AcDbLine
10
56
20
2.3e-15
11
56
21
68.75
0
LINE
5
2DC
100
AcDbEntity
8
Sketch
6
ByLayer
62
256
370
-1
100
AcDbLine
10
25
20
68.75
11
25
21
105.5
0
DIMENSION
5
2DD
100
AcDbEntity
8
Dimension
6
ByLayer
62
256
370
-1
100
AcDbDimension
2
*D24
10
-11.9430319889
20
72.5
30
0
11
-13.1930319889
21
32.625
31
0
70
32
71
5
3
Standard
53
0
210
0
220
0
230
1
100
AcDbAlignedDimension
13
0
23
0
33
0
14
0
24
65.25
34
0
50
90
100
AcDbRotatedDimension
0
LINE
5
2DE
100
AcDbEntity
8
Sketch
6
ByLayer
62
256
370
-1
100
AcDbLine
10
12.75
20
70.25
11
16.75
21
70.25
0
LINE
5
2DF
100
AcDbEntity
8
Sketch
6
ByLayer
62
256
370
-1
100
AcDbLine
10
16.75
20
70.25
11
19.75
21
68.75
0
LINE
5
2E0
100
AcDbEntity
8
Sketch
6
ByLayer
62
256
370
-1
100
AcDbLine
10
8.75
20
70.25
11
5.75
21
68.75
0
LINE
5
2E1
100
AcDbEntity
8
Outline
6
ByLayer
62
256
370
-1
100
AcDbLine
10
24.75
20
68.75
11
19.75
21
68.75
0
LINE
5
2E2
100
AcDbEntity
8
Outline
6
ByLayer
62
256
370
-1
100
AcDbLine
10
19.75
20
68.75
11
16.75
21
70.25
0
LINE
5
2E3
100
AcDbEntity
8
Outline
6
ByLayer
62
256
370
-1
100
AcDbLine
10
16.75
20
70.25
11
8.75
21
70.25
0
LINE
5
2E4
100
AcDbEntity
8
Outline
6
ByLayer
62
256
370
-1
100
AcDbLine
10
8.75
20
70.25
11
5.75
21
68.75
0
LINE
5
2E5
100
AcDbEntity
8
Outline
6
ByLayer
62
256
370
-1
100
AcDbLine
10
5.75
20
68.75
11
0.75
21
68.75
0
LINE
5
2E6
100
AcDbEntity
8
Outline
6
ByLayer
62
256
370
-1
100
AcDbLine
10
59.25
20
68.75
11
60
21
68.75
0
LINE
5
2E7
100
AcDbEntity
8
Outline
6
ByLayer
62
256
370
-1
100
AcDbLine
10
60
20
68.75
11
60
21
70.25
0
LINE
5
2E8
100
AcDbEntity
8
Outline
6
ByLayer
62
256
370
-1
100
AcDbLine
10
60
20
70.25
11
59.25
21
70.25
0
LINE
5
2E9
100
AcDbEntity
8
Outline
6
ByLayer
62
256
370
-1
100
AcDbLine
10
59.25
20
70.25
11
59.25
21
68.75
0
LINE
5
2EA
100
AcDbEntity
8
Outline
6
ByLayer
62
256
370
-1
100
AcDbLine
10
60
20
68.75
11
54.5
21
68.75
0
DIMENSION
5
2EB
100
AcDbEntity
8
Dimension
6
ByLayer
62
256
370
-1
100
AcDbDimension
2
*D25
10
51.5
20
76.2696617524
30
0
11
56
21
77.5196617524
31
0
70
32
71
5
3
Standard
53
0
210
0
220
0
230
1
100
AcDbAlignedDimension
13
60
23
70.25
33
0
14
52
24
70.25
34
0
100
AcDbRotatedDimension
0
DIMENSION
5
2EC
100
AcDbEntity
8
Dimension
6
ByLayer
62
256
370
-1
100
AcDbDimension
2
*D26
10
46.5
20
80.0727892072
30
0
11
53.5
21
81.3227892072
31
0
70
32
71
5
3
Standard
53
0
210
0
220
0
230
1
100
AcDbAlignedDimension
13
60
23
70.25
33
0
14
47
24
70.25
34
0
100
AcDbRotatedDimension
0
DIMENSION
5
2ED
100
AcDbEntity
8
Dimension
6
ByLayer
62
256
370
-1
100
AcDbDimension
2
*D27
10
54
20
73.2122455633
30
0
11
57.25
21
74.4622455633
31
0
70
32
71
5
3
Standard
53
0
210
0
220
0
230
1
100
AcDbAlignedDimension
13
60
23
70.25
33
0
14
54.5
24
68.75
34
0
100
AcDbRotatedDimension
0
DIMENSION
5
2EE
100
AcDbEntity
8
Dimension
6
ByLayer
62
256
370
-1
100
AcDbDimension
2
*D28
10
74.2215744089
20
76
30
0
11
72.9715744089
21
34.375
31
0
70
32
71
5
3
Standard
53
0
210
0
220
0
230
1
100
AcDbAlignedDimension
13
60
23
1.8e-15
33
0
14
60
24
68.75
34
0
50
90
100
AcDbRotatedDimension
0
LINE
5
2EF
100
AcDbEntity
8
Outline
6
ByLayer
62
256
370
-1
100
AcDbLine
10
54.5
20
68.75
11
52
21
70.25
0
LINE
5
2F0
100
AcDbEntity
8
Outline
6
ByLayer
62
256
370
-1
100
AcDbLine
10
52
20
70.25
11
47
21
70.25
0
DIMENSION
5
2F1
100
AcDbEntity
8
Dimension
6
ByLayer
62
256
370
-1
100
AcDbDimension
2
*D29
10
33.3531015299
20
77.5
30
0
11
32.1031015299
21
35.125
31
0
70
32
71
5
3
Standard
53
0
210
0
220
0
230
1
100
AcDbAlignedDimension
13
44.5
23
-3e-16
33
0
14
47
24
70.25
34
0
50
90
100
AcDbRotatedDimension
0
LINE
5
2F2
100
AcDbEntity
8
Sketch
6
ByLayer
62
256
370
-1
100
AcDbLine
10
25.5
20
66.75
11
-4e-16
21
66.75
0
LINE
5
2F3
100
AcDbEntity
8
Outline
6
ByLayer
62
256
370
-1
100
AcDbLine
10
9.75
20
68.75
11
15.75
21
68.75
0
LINE
5
2F4
100
AcDbEntity
8
Outline
6
ByLayer
62
256
370
-1
100
AcDbLine
10
9.75
20
66.75
11
15.75
21
66.75
0
ARC
5
2F5
100
AcDbEntity
8
Outline
6
ByLayer
62
256
370
-1
100
AcDbCircle
10
9.75
20
67.75
40
1
100
AcDbArc
50
90
51
270
0
ARC
5
2F6
100
AcDbEntity
8
Outline
6
ByLayer
62
256
370
-1
100
AcDbCircle
10
15.75
20
67.75
40
1
100
AcDbArc
50
270
51
90
0
DIMENSION
5
2F7
100
AcDbEntity
8
Dimension
6
ByLayer
62
256
370
-1
100
AcDbDimension
2
*D30
10
15.75
20
72.4664431492
30
0
11
12.75
21
73.7164431492
31
0
70
32
71
5
3
Standard
53
0
210
0
220
0
230
1
100
AcDbAlignedDimension
13
9.75
23
67.75
33
0
14
15.75
24
67.75
34
0
100
AcDbRotatedDimension
0
DIMENSION
5
2F8
100
AcDbEntity
8
Dimension
6
ByLayer
62
256
370
-1
100
AcDbDimension
2
*D31
10
16.75
20
75.211342196
30
0
11
12.75
21
76.461342196
31
0
70
32
71
5
3
Standard
53
0
210
0
220
0
230
1
100
AcDbAlignedDimension
13
8.75
23
70.25
33
0
14
16.75
24
70.25
34
0
100
AcDbRotatedDimension
0
DIMENSION
5
2F9
100
AcDbEntity
8
Dimension
6
ByLayer
62
256
370
-1
100
AcDbDimension
2
*D32
10
19.75
20
78.6424660044
30
0
11
12.75
21
79.8924660044
31
0
70
32
71
5
3
Standard
53
0
210
0
220
0
230
1
100
AcDbAlignedDimension
13
5.75
23
68.75
33
0
14
19.75
24
68.75
34
0
100
AcDbRotatedDimension
0
DIMENSION
5
2FA
100
AcDbEntity
8
Dimension
6
ByLayer
62
256
370
-1
100
AcDbDimension
2
*D33
10
24.75
20
83.3235898128
30
0
11
12.75
21
84.5735898128
31
0
70
32
71
5
3
Standard
53
0
210
0
220
0
230
1
100
AcDbAlignedDimension
13
0.75
23
70.25
33
0
14
24.75
24
70.25
34
0
100
AcDbRotatedDimension
0
DIMENSION
5
2FB
100
AcDbEntity
8
Dimension
6
ByLayer
62
256
370
-1
100
AcDbDimension
2
*D34
10
-15.725984122
20
75
30
0
11
-16.975984122
21
33.875
31
0
70
32
71
5
3
Standard
53
0
210
0
220
0
230
1
100
AcDbAlignedDimension
13
0
23
0
33
0
14
9.75
24
67.75
34
0
50
90
100
AcDbRotatedDimension
0
LINE
5
2FC
100
AcDbEntity
8
Sketch
6
ByLayer
62
256
370
-1
100
AcDbLine
10
48.5
20
64.5
11
48.5
21
46
0
DIMENSION
5
2FD
100
AcDbEntity
8
Dimension
6
ByLayer
62
256
370
-1
100
AcDbDimension
2
*D35
10
-4
20
65.75
30
0
11
-5.25
21
60.25
31
0
70
32
71
5
3
Standard
53
0
210
0
220
0
230
1
100
AcDbAlignedDimension
13
0.75
23
56
33
0
14
0.75
24
64.5
34
0
50
90
100
AcDbRotatedDimension
0
LINE
5
2FE
100
AcDbEntity
8
Outline
6
ByLayer
62
256
370
-1
100
AcDbLine
10
51
20
38.75
11
51
21
44.75
0
ARC
5
2FF
100
AcDbEntity
8
Outline
6
ByLayer
62
256
370
-1
100
AcDbCircle
10
50
20
44.75
40
1
100
AcDbArc
50
0
51
180
0
ARC
5
300
100
AcDbEntity
8
Outline
6
ByLayer
62
256
370
-1
100
AcDbCircle
10
50
20
38.75
40
1
100
AcDbArc
50
180
51
0
0
DIMENSION
5
301
100
AcDbEntity
8
Dimension
6
ByLayer
62
256
370
-1
100
AcDbDimension
2
*D36
10
68.8617746871
20
41.25
30
0
11
67.6117746871
21
19.375
31
0
70
32
71
5
3
Standard
53
0
210
0
220
0
230
1
100
AcDbAlignedDimension
13
60
23
1.8e-15
33
0
14
50
24
38.75
34
0
50
90
100
AcDbRotatedDimension
0
DIMENSION
5
302
100
AcDbEntity
8
Dimension
6
ByLayer
62
256
370
-1
100
AcDbDimension
2
*D37
10
68.8617746871
20
40.75
30
0
11
67.6117746871
21
41.75
31
0
70
32
71
5
3
Standard
53
0
210
0
220
0
230
1
100
AcDbAlignedDimension
13
50
23
38.75
33
0
14
50
24
44.75
34
0
50
90
100
AcDbRotatedDimension
0
LINE
5
303
100
AcDbEntity
8
Outline
6
ByLayer
62
256
370
-1
100
AcDbLine
10
49
20
44.75
11
49
21
38.75
0
DIMENSION
5
304
100
AcDbEntity
8
Dimension
6
ByLayer
62
256
370
-1
100
AcDbDimension
2
*D38
10
49
20
33.0006943379
30
0
11
50
21
34.2506943379
31
0
70
32
71
5
3
Standard
53
0
210
0
220
0
230
1
100
AcDbAlignedDimension
13
51
23
38.75
33
0
14
49
24
38.75
34
0
100
AcDbRotatedDimension
0
LINE
5
305
100
AcDbEntity
8
Outline
6
ByLayer
62
256
370
-1
100
AcDbLine
10
47
20
24
11
44.5
21
9.5
0
DIMENSION
5
306
100
AcDbEntity
8
Dimension
6
ByLayer
62
256
370
-1
100
AcDbDimension
2
*D39
10
37.4020806676
20
24
30
0
11
36.1520806676
21
12
31
0
70
32
71
5
3
Standard
53
0
210
0
220
0
230
1
100
AcDbAlignedDimension
13
44.5
23
-3e-16
33
0
14
47
24
24
34
0
50
90
100
AcDbRotatedDimension
0
LINE
5
307
100
AcDbEntity
8
Outline
6
ByLayer
62
256
370
-1
100
AcDbLine
10
47
20
70.25
11
47
21
24
0
LINE
5
308
100
AcDbEntity
8
Lumber
6
ByLayer
62
256
370
-1
100
AcDbLine
10
12.75
20
6.75
11
14.75
21
6.75
0
LINE
5
309
100
AcDbEntity
8
Lumber
6
ByLayer
62
256
370
-1
100
AcDbLine
10
14.75
20
6.75
11
14.75
21
18.25
0
LINE
5
30A
100
AcDbEntity
8
Lumber
6
ByLayer
62
256
370
-1
100
AcDbLine
10
14.75
20
18.25
11
12.75
21
18.25
0
LINE
5
30B
100
AcDbEntity
8
Lumber
6
ByLayer
62
256
370
-1
100
AcDbLine
10
12.75
20
18.25
11
12.75
21
6.75
0
LINE
5
30C
100
AcDbEntity
8
Sketch
6
ByLayer
62
256
370
-1
100
AcDbLine
10
12.75
20
18.25
11
12.75
21
6.75
0
LINE
5
30D
100
AcDbEntity
8
Sketch
6
ByLayer
62
256
370
-1
100
AcDbLine
10
20
20
6.75
11
20
21
18.25
0
LINE
5
30E
100
AcDbEntity
8
Sketch
6
ByLayer
62
256
370
-1
100
AcDbLine
10
20
20
6.75
11
20.25
21
6.75
0
LINE
5
30F
100
AcDbEntity
8
Sketch
6
ByLayer
62
256
370
-1
100
AcDbLine
10
20.25
20
6.75
11
20.25
21
18.25
0
LINE
5
310
100
AcDbEntity
8
Sketch
6
ByLayer
62
256
370
-1
100
AcDbLine
10
20.25
20
18.25
11
20
21
18.25
0
LINE
5
311
100
AcDbEntity
8
Sketch
6
ByLayer
62
256
370
-1
100
AcDbLine
10
20
20
18.25
11
20
21
6.75
0
LINE
5
312
100
AcDbEntity
8
Outline
6
ByLayer
62
256
370
-1
100
AcDbLine
10
20
20
18.25
11
20.25
21
18.25
0
LINE
5
313
100
AcDbEntity
8
Outline
6
ByLayer
62
256
370
-1
100
AcDbLine
10
20.25
20
18.25
11
20.25
21
6.75
0
LINE
5
314
100
AcDbEntity
8
Outline
6
ByLayer
62
256
370
-1
100
AcDbLine
10
20.25
20
6.75
11
20
21
6.75
0
LINE
5
315
100
AcDbEntity
8
Outline
6
ByLayer
62
256
370
-1
100
AcDbLine
10
20
20
6.75
11
20
21
18.25
0
LINE
5
316
100
AcDbEntity
8
Sketch
6
ByLayer
62
256
370
-1
100
AcDbLine
10
5.5
20
6.75
11
5.5
21
18.25
0
LINE
5
317
100
AcDbEntity
8
Sketch
6
ByLayer
62
256
370
-1
100
AcDbLine
10
5.5
20
6.75
11
5.25
21
6.75
0
LINE
5
318
100
AcDbEntity
8
Sketch
6
ByLayer
62
256
370
-1
100
AcDbLine
10
5.25
20
6.75
11
5.25
21
18.25
0
LINE
5
319
100
AcDbEntity
8
Sketch
6
ByLayer
62
256
370
-1
100
AcDbLine
10
5.25
20
18.25
11
5.5
21
18.25
0
LINE
5
31A
100
AcDbEntity
8
Sketch
6
ByLayer
62
256
370
-1
100
AcDbLine
10
5.5
20
18.25
11
5.5
21
6.75
0
LINE
5
31B
100
AcDbEntity
8
Outline
6
ByLayer
62
256
370
-1
100
AcDbLine
10
5.5
20
18.25
11
5.25
21
18.25
0
LINE
5
31C
100
AcDbEntity
8
Outline
6
ByLayer
62
256
370
-1
100
AcDbLine
10
5.25
20
18.25
11
5.25
21
6.75
0
LINE
5
31D
100
AcDbEntity
8
Outline
6
ByLayer
62
256
370
-1
100
AcDbLine
10
5.25
20
6.75
11
5.5
21
6.75
0
LINE
5
31E
100
AcDbEntity
8
Outline
6
ByLayer
62
256
370
-1
100
AcDbLine
10
5.5
20
6.75
11
5.5
21
18.25
0
LINE
5
31F
100
AcDbEntity
8
Sketch
6
ByLayer
62
256
370
-1
100
AcDbLine
10
12.75
20
6.75
11
15.25
21
6.75
0
LINE
5
320
100
AcDbEntity
8
Sketch
6
ByLayer
62
256
370
-1
100
AcDbLine
10
15.25
20
6.75
11
15.25
21
18.25
0
LINE
5
321
100
AcDbEntity
8
Sketch
6
ByLayer
62
256
370
-1
100
AcDbLine
10
15.25
20
18.25
11
12.75
21
18.25
0
LINE
5
322
100
AcDbEntity
8
Sketch
6
ByLayer
62
256
370
-1
100
AcDbLine
10
15.25
20
18.25
11
15.25
21
6.75
0
LINE
5
323
100
AcDbEntity
8
Sketch
6
ByLayer
62
256
370
-1
100
AcDbLine
10
15.25
20
6.75
11
15.5
21
6.75
0
LINE
5
324
100
AcDbEntity
8
Sketch
6
ByLayer
62
256
370
-1
100
AcDbLine
10
15.5
20
6.75
11
15.5
21
18.25
0
LINE
5
325
100
AcDbEntity
8
Sketch
6
ByLayer
62
256
370
-1
100
AcDbLine
10
15.5
20
18.25
11
15.25
21
18.25
0
LINE
5
326
100
AcDbEntity
8
Sketch
6
ByLayer
62
256
370
-1
100
AcDbLine
10
15.5
20
6.75
11
20
21
6.75
0
LINE
5
327
100
AcDbEntity
8
Sketch
6
ByLayer
62
256
370
-1
100
AcDbLine
10
20
20
18.25
11
15.5
21
18.25
0
LINE
5
328
100
AcDbEntity
8
Sketch
6
ByLayer
62
256
370
-1
100
AcDbLine
10
15.5
20
18.25
11
15.5
21
6.75
0
LINE
5
329
100
AcDbEntity
8
Outline
6
ByLayer
62
256
370
-1
100
AcDbLine
10
15.25
20
18.25
11
15.5
21
18.25
0
LINE
5
32A
100
AcDbEntity
8
Outline
6
ByLayer
62
256
370
-1
100
AcDbLine
10
15.5
20
18.25
11
15.5
21
6.75
0
LINE
5
32B
100
AcDbEntity
8
Outline
6
ByLayer
62
256
370
-1
100
AcDbLine
10
15.5
20
6.75
11
15.25
21
6.75
0
LINE
5
32C
100
AcDbEntity
8
Outline
6
ByLayer
62
256
370
-1
100
AcDbLine
10
15.25
20
6.75
11
15.25
21
18.25
0
LINE
5
32D
100
AcDbEntity
8
Sketch
6
ByLayer
62
256
370
-1
100
AcDbLine
10
10.25
20
6.75
11
10.25
21
18.25
0
LINE
5
32E
100
AcDbEntity
8
Sketch
6
ByLayer
62
256
370
-1
100
AcDbLine
10
10.25
20
18.25
11
10.25
21
6.75
0
LINE
5
32F
100
AcDbEntity
8
Sketch
6
ByLayer
62
256
370
-1
100
AcDbLine
10
10.25
20
6.75
11
10
21
6.75
0
LINE
5
330
100
AcDbEntity
8
Sketch
6
ByLayer
62
256
370
-1
100
AcDbLine
10
10
20
6.75
11
10
21
18.25
0
LINE
5
331
100
AcDbEntity
8
Sketch
6
ByLayer
62
256
370
-1
100
AcDbLine
10
10
20
18.25
11
10.25
21
18.25
0
LINE
5
332
100
AcDbEntity
8
Sketch
6
ByLayer
62
256
370
-1
100
AcDbLine
10
10
20
6.75
11
5.5
21
6.75
0
LINE
5
333
100
AcDbEntity
8
Sketch
6
ByLayer
62
256
370
-1
100
AcDbLine
10
5.5
20
18.25
11
10
21
18.25
0
LINE
5
334
100
AcDbEntity
8
Sketch
6
ByLayer
62
256
370
-1
100
AcDbLine
10
10
20
18.25
11
10
21
6.75
0
LINE
5
335
100
AcDbEntity
8
Outline
6
ByLayer
62
256
370
-1
100
AcDbLine
10
10.25
20
18.25
11
10
21
18.25
0
LINE
5
336
100
AcDbEntity
8
Outline
6
ByLayer
62
256
370
-1
100
AcDbLine
10
10
20
18.25
11
10
21
6.75
0
LINE
5
337
100
AcDbEntity
8
Outline
6
ByLayer
62
256
370
-1
100
AcDbLine
10
10
20
6.75
11
10.25
21
6.75
0
LINE
5
338
100
AcDbEntity
8
Outline
6
ByLayer
62
256
370
-1
100
AcDbLine
10
10.25
20
6.75
11
10.25
21
18.25
0
DIMENSION
5
339
100
AcDbEntity
8
Dimension
6
ByLayer
62
256
370
-1
100
AcDbDimension
2
*D40
10
1e-15
20
86.9584018009
30
0
11
12.75
21
88.2084018009
31
0
70
32
71
5
72
0
3
Standard
53
0
210
0
220
0
230
1
100
AcDbAlignedDimension
13
25.5
23
70.25
33
0
14
0
24
70.25
34
0
100
AcDbRotatedDimension
0
DIMENSION
5
33A
100
AcDbEntity
8
Dimension
6
ByLayer
62
256
370
-1
100
AcDbDimension
2
*D41
10
15.25
20
-9.46318188511
30
0
11
12.75
21
-8.21318188511
31
0
70
32
71
5
3
Standard
53
0
210
0
220
0
230
1
100
AcDbAlignedDimension
13
10.25
23
6.75
33
0
14
15.25
24
6.75
34
0
100
AcDbRotatedDimension
0
LINE
5
33B
100
AcDbEntity
8
Sketch
6
ByLayer
62
256
370
-1
100
AcDbLine
10
49.25
20
3.1e-15
11
49.25
21
68.75
0
LINE
5
33C
100
AcDbEntity
8
Hidden
6
ByLayer
62
256
370
-1
100
AcDbLine
10
49.25
20
65.25
11
59.25
21
65.25
0
LINE
5
33D
100
AcDbEntity
8
Hidden
6
ByLayer
62
256
370
-1
100
AcDbLine
10
59.25
20
65.25
11
59.25
21
64.5
0
LINE
5
33E
100
AcDbEntity
8
Hidden
6
ByLayer
62
256
370
-1
100
AcDbLine
10
59.25
20
64.5
11
49.25
21
64.5
0
LINE
5
33F
100
AcDbEntity
8
Hidden
6
ByLayer
62
256
370
-1
100
AcDbLine
10
49.25
20
64.5
11
49.25
21
65.25
0
LINE
5
340
100
AcDbEntity
8
Hidden
6
ByLayer
62
256
370
-1
100
AcDbLine
10
49.25
20
56
11
59.25
21
56
0
LINE
5
341
100
AcDbEntity
8
Hidden
6
ByLayer
62
256
370
-1
100
AcDbLine
10
59.25
20
56
11
59.25
21
55.25
0
LINE
5
342
100
AcDbEntity
8
Hidden
6
ByLayer
62
256
370
-1
100
AcDbLine
10
59.25
20
55.25
11
49.25
21
55.25
0
LINE
5
343
100
AcDbEntity
8
Hidden
6
ByLayer
62
256
370
-1
100
AcDbLine
10
49.25
20
55.25
11
49.25
21
56
0
LINE
5
344
100
AcDbEntity
8
Hidden
6
ByLayer
62
256
370
-1
100
AcDbLine
10
49.25
20
46.75
11
59.25
21
46.75
0
LINE
5
345
100
AcDbEntity
8
Hidden
6
ByLayer
62
256
370
-1
100
AcDbLine
10
59.25
20
46.75
11
59.25
21
46
0
LINE
5
346
100
AcDbEntity
8
Hidden
6
ByLayer
62
256
370
-1
100
AcDbLine
10
59.25
20
46
11
49.25
21
46
0
LINE
5
347
100
AcDbEntity
8
Hidden
6
ByLayer
62
256
370
-1
100
AcDbLine
10
49.25
20
46
11
49.25
21
46.75
0
LINE
5
348
100
AcDbEntity
8
Hidden
6
ByLayer
62
256
370
-1
100
AcDbLine
10
49.25
20
37.5
11
59.25
21
37.5
0
LINE
5
349
100
AcDbEntity
8
Hidden
6
ByLayer
62
256
370
-1
100
AcDbLine
10
59.25
20
37.5
11
59.25
21
36.75
0
LINE
5
34A
100
AcDbEntity
8
Hidden
6
ByLayer
62
256
370
-1
100
AcDbLine
10
59.25
20
36.75
11
49.25
21
36.75
0
LINE
5
34B
100
AcDbEntity
8
Hidden
6
ByLayer
62
256
370
-1
100
AcDbLine
10
49.25
20
36.75
11
49.25
21
37.5
0
LINE
5
34C
100
AcDbEntity
8
Hidden
6
ByLayer
62
256
370
-1
100
AcDbLine
10
49
20
28.25
11
59.25
21
28.25
0
LINE
5
34D
100
AcDbEntity
8
Hidden
6
ByLayer
62
256
370
-1
100
AcDbLine
10
59.25
20
28.25
11
59.25
21
27.5
0
LINE
5
34E
100
AcDbEntity
8
Hidden
6
ByLayer
62
256
370
-1
100
AcDbLine
10
59.25
20
27.5
11
49
21
27.5
0
LINE
5
34F
100
AcDbEntity
8
Hidden
6
ByLayer
62
256
370
-1
100
AcDbLine
10
49
20
27.5
11
49
21
28.25
0
LINE
5
350
100
AcDbEntity
8
Sketch
6
ByLayer
62
256
370
-1
100
AcDbLine
10
47.5
20
6
11
60
21
6
0
LINE
5
351
100
AcDbEntity
8
Sketch
6
ByLayer
62
256
370
-1
100
AcDbLine
10
47.5
20
6.75
11
60
21
6.75
0
LINE
5
352
100
AcDbEntity
8
Sketch
6
ByLayer
62
256
370
-1
100
AcDbLine
10
47.5
20
-3e-16
11
47.5
21
6.75
0
LINE
5
353
100
AcDbEntity
8
Hidden
6
ByLayer
62
256
370
-1
100
AcDbLine
10
47.5
20
6
11
47.5
21
6.75
0
LINE
5
354
100
AcDbEntity
8
Hidden
6
ByLayer
62
256
370
-1
100
AcDbLine
10
60
20
4
11
59.25
21
4
0
LINE
5
355
100
AcDbEntity
8
Hidden
6
ByLayer
62
256
370
-1
100
AcDbLine
10
59.25
20
4
11
59.25
21
68.75
0
DIMENSION
5
356
100
AcDbEntity
8
Dimension
6
ByLayer
62
256
370
-1
100
AcDbDimension
2
*D42
10
50
20
49.1127232267
30
0
11
55
21
50.3627232267
31
0
70
32
71
5
3
Standard
53
0
210
0
220
0
230
1
100
AcDbAlignedDimension
13
60
23
70.25
33
0
14
50
24
44.75
34
0
100
AcDbRotatedDimension
0
DIMENSION
5
357
100
AcDbEntity
8
Dimension
6
ByLayer
62
256
370
-1
100
AcDbDimension
2
*D43
10
59.25
20
60.5344539807
30
0
11
54.25
21
61.7844539807
31
0
70
32
1
6X <>
71
5
72
0
3
Standard
53
0
210
0
220
0
230
1
100
AcDbAlignedDimension
13
49.25
23
64.5
33
0
14
59.25
24
64.5
34
0
100
AcDbRotatedDimension
0
DIMENSION
5
358
100
AcDbEntity
8
Dimension
6
ByLayer
62
256
370
-1
100
AcDbDimension
2
*D44
10
25
20
108.821239365
30
0
11
12.75
21
110.071239365
31
0
70
32
71
5
72
0
3
Standard
53
0
210
0
220
0
230
1
100
AcDbAlignedDimension
13
0.5
23
105.5
33
0
14
25
24
105.5
34
0
100
AcDbRotatedDimension
0
LINE
5
359
100
AcDbEntity
8
Thin
6
ByLayer
62
256
370
-1
100
AcDbLine
10
0.75
20
92.75
11
24.75
21
92.75
0
LINE
5
35A
100
AcDbEntity
8
Outline
6
ByLayer
62
256
370
-1
100
AcDbLine
10
24.75
20
94.75
11
0.75
21
94.75
0
LINE
5
35B
100
AcDbEntity
8
Outline
6
ByLayer
62
256
370
-1
100
AcDbLine
10
0.75
20
94.75
11
0.75
21
104.75
0
LINE
5
35C
100
AcDbEntity
8
Outline
6
ByLayer
62
256
370
-1
100
AcDbLine
10
24.75
20
104.75
11
24.75
21
94.75
0
LINE
5
35D
100
AcDbEntity
8
Hidden
6
ByLayer
62
256
370
-1
100
AcDbLine
10
24.75
20
92.75
11
25
21
92.75
0
LINE
5
35E
100
AcDbEntity
8
Hidden
6
ByLayer
62
256
370
-1
100
AcDbLine
10
25
20
92.75
11
25
21
105
0
LINE
5
35F
100
AcDbEntity
8
Hidden
6
ByLayer
62
256
370
-1
100
AcDbLine
10
0.5
20
105
11
0.5
21
92.75
0
LINE
5
360
100
AcDbEntity
8
Hidden
6
ByLayer
62
256
370
-1
100
AcDbLine
10
0.5
20
92.75
11
0.75
21
92.75
0
DIMENSION
5
361
100
AcDbEntity
8
Dimension
6
ByLayer
62
256
370
-1
100
AcDbDimension
2
*D45
10
24.75
20
-4.8307290385
30
0
11
22.5
21
-3.5807290385
31
0
70
32
1
2X <>
71
5
72
0
3
Standard
53
0
210
0
220
0
230
1
100
AcDbAlignedDimension
13
20.25
23
6.75
33
0
14
24.75
24
0
34
0
100
AcDbRotatedDimension
0
DIMENSION
5
362
100
AcDbEntity
8
Dimension
6
ByLayer
62
256
370
-1
100
AcDbDimension
2
*D46
10
20
20
-9.46318188511
30
0
11
17.75
21
-8.21318188511
31
0
70
32
1
2X <>
71
5
72
0
3
Standard
53
0
210
0
220
0
230
1
100
AcDbAlignedDimension
13
15.5
23
6.75
33
0
14
20
24
6.75
34
0
100
AcDbRotatedDimension
0
DIMENSION
5
363
100
AcDbEntity
8
Dimension
6
ByLayer
62
256
370
-1
100
AcDbDimension
2
*D47
10
15.2215996202
20
-14.1657661205
30
0
11
15.375
21
-12.9157661205
31
0
70
32
1
4X <>
71
5
3
Standard
53
0
210
0
220
0
230
1
100
AcDbAlignedDimension
13
15.25
23
6.75
33
0
14
15.5
24
6.75
34
0
100
AcDbRotatedDimension
0
DIMENSION
5
364
100
AcDbEntity
8
Dimension
6
ByLayer
62
256
370
-1
100
AcDbDimension
2
*D48
10
-3e-16
20
-5.20877859834
30
0
11
0.375
21
-3.95877859834
31
0
70
32
1
10X <>
71
5
72
0
3
Standard
53
0
210
0
220
0
230
1
100
AcDbAlignedDimension
13
0.75
23
0
33
0
14
0
24
0
34
0
100
AcDbRotatedDimension
0
LINE
5
365
100
AcDbEntity
8
Sketch
6
ByLayer
62
256
370
-1
100
AcDbLine
10
25.5
20
64.875
11
-8e-16
21
64.875
0
LINE
5
366
100
AcDbEntity
8
Sketch
6
ByLayer
62
256
370
-1
100
AcDbLine
10
4.3e-15
20
55.625
11
60
21
55.625
0
LINE
5
367
100
AcDbEntity
8
Sketch
6
ByLayer
62
256
370
-1
100
AcDbLine
10
3.7e-15
20
46.375
11
60
21
46.375
0
LINE
5
368
100
AcDbEntity
8
Sketch
6
ByLayer
62
256
370
-1
100
AcDbLine
10
3e-15
20
37.125
11
60
21
37.125
0
LINE
5
369
100
AcDbEntity
8
Sketch
6
ByLayer
62
256
370
-1
100
AcDbLine
10
1.4e-15
20
27.875
11
60
21
27.875
0
LINE
5
36A
100
AcDbEntity
8
Sketch
6
ByLayer
62
256
370
-1
100
AcDbLine
10
1.3e-15
20
18.625
11
60
21
18.625
0
LINE
5
36B
100
AcDbEntity
8
Sketch
6
ByLayer
62
256
370
-1
100
AcDbLine
10
1.3e-15
20
18.25
11
60
21
18.25
0
LINE
5
36C
100
AcDbEntity
8
Sketch
6
ByLayer
62
256
370
-1
100
AcDbLine
10
14.75
20
105.5
11
14.75
21
-5e-16
0
LINE
5
36D
100
AcDbEntity
8
Sketch
6
ByLayer
62
256
370
-1
100
AcDbLine
10
10.75
20
74
11
10.75
21
7e-16
0
LINE
5
36E
100
AcDbEntity
8
Sketch
6
ByLayer
62
256
370
-1
100
AcDbLine
10
18.75
20
105.5
11
18.75
21
-1.5e-15
0
LINE
5
36F
100
AcDbEntity
8
Sketch
6
ByLayer
62
256
370
-1
100
AcDbLine
10
6.75
20
74
11
6.75
21
2.2e-15
0
CIRCLE
5
370
100
AcDbEntity
8
Hidden
6
ByLayer
62
256
370
-1
100
AcDbCircle
10
6.75
20
64.875
40
0.1875
0
CIRCLE
5
371
100
AcDbEntity
8
Hidden
6
ByLayer
62
256
370
-1
100
AcDbCircle
10
10.75
20
64.875
40
0.1875
0
CIRCLE
5
372
100
AcDbEntity
8
Hidden
6
ByLayer
62
256
370
-1
100
AcDbCircle
10
14.75
20
64.875
40
0.1875
0
CIRCLE
5
373
100
AcDbEntity
8
Hidden
6
ByLayer
62
256
370
-1
100
AcDbCircle
10
18.75
20
64.875
40
0.1875
0
CIRCLE
5
374
100
AcDbEntity
8
Hidden
6
ByLayer
62
256
370
-1
100
AcDbCircle
10
6.75
20
55.625
40
0.1875
0
CIRCLE
5
375
100
AcDbEntity
8
Hidden
6
ByLayer
62
256
370
-1
100
AcDbCircle
10
10.75
20
55.625
40
0.1875
0
CIRCLE
5
376
100
AcDbEntity
8
Hidden
6
ByLayer
62
256
370
-1
100
AcDbCircle
10
14.75
20
55.625
40
0.1875
0
CIRCLE
5
377
100
AcDbEntity
8
Hidden
6
ByLayer
62
256
370
-1
100
AcDbCircle
10
18.75
20
55.625
40
0.1875
0
CIRCLE
5
378
100
AcDbEntity
8
Hidden
6
ByLayer
62
256
370
-1
100
AcDbCircle
10
6.75
20
46.375
40
0.1875
0
CIRCLE
5
379
100
AcDbEntity
8
Hidden
6
ByLayer
62
256
370
-1
100
AcDbCircle
10
10.75
20
46.375
40
0.1875
0
CIRCLE
5
37A
100
AcDbEntity
8
Hidden
6
ByLayer
62
256
370
-1
100
AcDbCircle
10
14.75
20
46.375
40
0.1875
0
CIRCLE
5
37B
100
AcDbEntity
8
Hidden
6
ByLayer
62
256
370
-1
100
AcDbCircle
10
18.75
20
46.375
40
0.1875
0
CIRCLE
5
37C
100
AcDbEntity
8
Hidden
6
ByLayer
62
256
370
-1
100
AcDbCircle
10
6.75
20
37.125
40
0.1875
0
CIRCLE
5
37D
100
AcDbEntity
8
Hidden
6
ByLayer
62
256
370
-1
100
AcDbCircle
10
10.75
20
37.125
40
0.1875
0
CIRCLE
5
37E
100
AcDbEntity
8
Hidden
6
ByLayer
62
256
370
-1
100
AcDbCircle
10
14.75
20
37.125
40
0.1875
0
CIRCLE
5
37F
100
AcDbEntity
8
Hidden
6
ByLayer
62
256
370
-1
100
AcDbCircle
10
18.75
20
37.125
40
0.1875
0
CIRCLE
5
380
100
AcDbEntity
8
Hidden
6
ByLayer
62
256
370
-1
100
AcDbCircle
10
6.75
20
27.875
40
0.1875
0
CIRCLE
5
381
100
AcDbEntity
8
Hidden
6
ByLayer
62
256
370
-1
100
AcDbCircle
10
10.75
20
27.875
40
0.1875
0
CIRCLE
5
382
100
AcDbEntity
8
Hidden
6
ByLayer
62
256
370
-1
100
AcDbCircle
10
14.75
20
27.875
40
0.1875
0
CIRCLE
5
383
100
AcDbEntity
8
Hidden
6
ByLayer
62
256
370
-1
100
AcDbCircle
10
18.75
20
27.875
40
0.1875
0
CIRCLE
5
384
100
AcDbEntity
8
Hidden
6
ByLayer
62
256
370
-1
100
AcDbCircle
10
6.75
20
18.625
40
0.1875
0
CIRCLE
5
385
100
AcDbEntity
8
Hidden
6
ByLayer
62
256
370
-1
100
AcDbCircle
10
10.75
20
18.625
40
0.1875
0
CIRCLE
5
386
100
AcDbEntity
8
Hidden
6
ByLayer
62
256
370
-1
100
AcDbCircle
10
14.75
20
18.625
40
0.1875
0
CIRCLE
5
387
100
AcDbEntity
8
Hidden
6
ByLayer
62
256
370
-1
100
AcDbCircle
10
18.75
20
18.625
40
0.1875
0
LINE
5
388
100
AcDbEntity
8
Sketch
6
ByLayer
62
256
370
-1
100
AcDbLine
10
4e-16
20
6.375
11
25.5
21
6.375
0
CIRCLE
5
389
100
AcDbEntity
8
Hidden
6
ByLayer
62
256
370
-1
100
AcDbCircle
10
6.75
20
6.375
40
0.1875
0
CIRCLE
5
38A
100
AcDbEntity
8
Hidden
6
ByLayer
62
256
370
-1
100
AcDbCircle
10
10.75
20
6.375
40
0.1875
0
CIRCLE
5
38B
100
AcDbEntity
8
Hidden
6
ByLayer
62
256
370
-1
100
AcDbCircle
10
18.75
20
6.375
40
0.1875
0
DIMENSION
5
38C
100
AcDbEntity
8
Dimension
6
ByLayer
62
256
370
-1
100
AcDbDimension
2
*D49
10
14.75
20
60.0417316809
30
0
11
12.75
21
61.2917316809
31
0
70
32
71
5
72
0
3
Standard
53
0
210
0
220
0
230
1
100
AcDbAlignedDimension
13
10.75
23
64.875
33
0
14
14.75
24
64.875
34
0
100
AcDbRotatedDimension
0
DIMENSION
5
38D
100
AcDbEntity
8
Dimension
6
ByLayer
62
256
370
-1
100
AcDbDimension
2
*D50
10
10.75
20
60.0417316809
30
0
11
8.75
21
61.2917316809
31
0
70
32
71
5
72
0
3
Standard
53
0
210
0
220
0
230
1
100
AcDbAlignedDimension
13
6.75
23
64.875
33
0
14
10.75
24
64.875
34
0
100
AcDbRotatedDimension
0
DIMENSION
5
38E
100
AcDbEntity
8
Dimension
6
ByLayer
62
256
370
-1
100
AcDbDimension
2
*D51
10
18.75
20
60.0417316809
30
0
11
16.75
21
61.2917316809
31
0
70
32
71
5
72
0
3
Standard
53
0
210
0
220
0
230
1
100
AcDbAlignedDimension
13
14.75
23
64.875
33
0
14
18.75
24
64.875
34
0
100
AcDbRotatedDimension
0
DIMENSION
5
38F
100
AcDbEntity
8
Dimension
6
ByLayer
62
256
370
-1
100
AcDbDimension
2
*D52
10
18.6103433746
20
64.7498909397
30
0
11
17.915939598
21
65.8060441697
31
0
70
35
1
%%C<> DOWELS
71
5
72
0
3
Standard
53
0
210
0
220
0
230
1
100
AcDbDiametricDimension
15
18.8896566254
25
65.0001090603
35
0
40
0
0
LINE
5
390
100
AcDbEntity
8
Sketch
6
ByLayer
62
256
370
-1
100
AcDbLine
10
50.25
20
19
11
50.25
21
6
0
LINE
5
391
100
AcDbEntity
8
Sketch
6
ByLayer
62
256
370
-1
100
AcDbLine
10
1e-15
20
16.25
11
59
21
16.25
0
LINE
5
392
100
AcDbEntity
8
Sketch
6
ByLayer
62
256
370
-1
100
AcDbLine
10
59.25
20
8.75
11
47.5
21
8.75
0
LINE
5
393
100
AcDbEntity
8
Sketch
6
ByLayer
62
256
370
-1
100
AcDbLine
10
50.25
20
12.5
11
52.25
21
12.5
0
ARC
5
394
100
AcDbEntity
8
Sketch
6
ByLayer
62
256
370
-1
100
AcDbCircle
10
47.734375
20
12.5
40
4.515625
100
AcDbArc
50
303.855026128
51
56.1449738717
0
DIMENSION
5
395
100
AcDbEntity
8
Dimension
6
ByLayer
62
256
370
-1
100
AcDbDimension
2
*D53
10
59.5
20
20.2572418989
30
0
11
55.75
21
21.5072418989
31
0
70
32
71
5
3
Standard
53
0
210
0
220
0
230
1
100
AcDbAlignedDimension
13
52.25
23
12.5
33
0
14
59.25
24
18.5
34
0
100
AcDbRotatedDimension
0
DIMENSION
5
396
100
AcDbEntity
8
Dimension
6
ByLayer
62
256
370
-1
100
AcDbDimension
2
*D54
10
59.5
20
22.8295900766
30
0
11
54.75
21
24.0795900766
31
0
70
32
71
5
3
Standard
53
0
210
0
220
0
230
1
100
AcDbAlignedDimension
13
50.25
23
18.5
33
0
14
59.25
24
18.5
34
0
100
AcDbRotatedDimension
0
DIMENSION
5
397
100
AcDbEntity
8
Dimension
6
ByLayer
62
256
370
-1
100
AcDbDimension
2
*D55
10
47.984375
20
12.5
30
0
11
56.4522033053
21
10.6445722038
31
0
70
36
71
5
3
Standard
53
0
210
0
220
0
230
1
100
AcDbRadialDimension
15
52.2098863405
25
10.9075418209
35
0
40
0
0
LINE
5
398
100
AcDbEntity
8
Dimension
6
ByLayer
62
256
370
-1
100
AcDbLine
10
47.734375
20
12.5
11
48.734375
21
12.5
0
LINE
5
399
100
AcDbEntity
8
Dimension
6
ByLayer
62
256
370
-1
100
AcDbLine
10
47.734375
20
12.5
11
47.734375
21
13.5
0
LINE
5
39A
100
AcDbEntity
8
Dimension
6
ByLayer
62
256
370
-1
100
AcDbLine
10
47.734375
20
12.5
11
46.984375
21
12.5
0
LINE
5
39B
100
AcDbEntity
8
Dimension
6
ByLayer
62
256
370
-1
100
AcDbLine
10
47.734375
20
12.5
11
47.734375
21
11.5
0
LINE
5
39C
100
AcDbEntity
8
Dimension
6
ByLayer
62
256
370
-1
100
AcDbLine
10
47.734375
20
12.5
11
48.734375
21
12.5
0
LINE
5
39D
100
AcDbEntity
8
Hidden
6
ByLayer
62
256
370
-1
100
AcDbLine
10
50.25
20
16.25
11
50.25
21
18.5
0
LINE
5
39E
100
AcDbEntity
8
Sketch
6
ByLayer
62
256
370
-1
100
AcDbLine
10
1.4e-15
20
18.5
11
59.25
21
18.5
0
LINE
5
39F
100
AcDbEntity
8
Sketch
6
ByLayer
62
256
370
-1
100
AcDbLine
10
59.25
20
6.5
11
59.25
21
18.5
0
LINE
5
3A0
100
AcDbEntity
8
Sketch
6
ByLayer
62
256
370
-1
100
AcDbLine
10
47.75
20
6.5
11
59.25
21
6.5
0
LINE
5
3A1
100
AcDbEntity
8
Hidden
6
ByLayer
62
256
370
-1
100
AcDbLine
10
50.25
20
18.5
11
59.25
21
18.5
0
LINE
5
3A2
100
AcDbEntity
8
Hidden
6
ByLayer
62
256
370
-1
100
AcDbLine
10
59.25
20
18.5
11
59.25
21
6.5
0
LINE
5
3A3
100
AcDbEntity
8
Hidden
6
ByLayer
62
256
370
-1
100
AcDbLine
10
59.25
20
6.5
11
50.25
21
6.5
0
LINE
5
3A4
100
AcDbEntity
8
Hidden
6
ByLayer
62
256
370
-1
100
AcDbLine
10
50.25
20
6.5
11
50.25
21
8.75
0
ARC
5
3A5
100
AcDbEntity
8
Hidden
6
ByLayer
62
256
370
-1
100
AcDbCircle
10
47.734375
20
12.5
40
4.515625
100
AcDbArc
50
303.855026128
51
56.1449738717
0
LINE
5
3A6
100
AcDbEntity
8
Sketch
6
ByLayer
62
256
370
-1
100
AcDbLine
10
48.75
20
18.25
11
59
21
18.25
0
LINE
5
3A7
100
AcDbEntity
8
Sketch
6
ByLayer
62
256
370
-1
100
AcDbLine
10
48.75
20
18.25
11
49
21
30.25
0
LINE
5
3A8
100
AcDbEntity
8
Hidden
6
ByLayer
62
256
370
-1
100
AcDbLine
10
48.75
20
18.25
11
48.75
21
19
0
LINE
5
3A9
100
AcDbEntity
8
Hidden
6
ByLayer
62
256
370
-1
100
AcDbLine
10
48.75
20
19
11
59.25
21
19
0
LINE
5
3AA
100
AcDbEntity
8
Hidden
6
ByLayer
62
256
370
-1
100
AcDbLine
10
59.25
20
19
11
59.25
21
18.25
0
LINE
5
3AB
100
AcDbEntity
8
Hidden
6
ByLayer
62
256
370
-1
100
AcDbLine
10
59.25
20
18.25
11
48.75
21
18.25
0
LINE
5
3AC
100
AcDbEntity
8
Hidden
6
ByLayer
62
256
370
-1
100
AcDbLine
10
47.5
20
6.75
11
59.25
21
6.75
0
LINE
5
3AD
100
AcDbEntity
8
Hidden
6
ByLayer
62
256
370
-1
100
AcDbLine
10
59.25
20
6.75
11
59.25
21
6
0
LINE
5
3AE
100
AcDbEntity
8
Hidden
6
ByLayer
62
256
370
-1
100
AcDbLine
10
59.25
20
6
11
47.5
21
6
0
CIRCLE
5
3AF
100
AcDbEntity
8
Hidden
6
ByLayer
62
256
370
-1
100
AcDbCircle
10
14.75
20
6.375
40
0.1875
0
MTEXT
5
3B0
100
AcDbEntity
8
Title
6
ByLayer
62
256
370
-1
100
AcDbMText
10
48.838739209
20
108.801837979
30
0
40
2
41
32.1666662427
71
2
72
5
1
BSV005\PPAPERBACK BOOKSHELF\PBY:  JHG\PDATE:   2010/12/27\PREV:   2011/01/09\PSCALE:  1"=1'
7
iso
210
0
220
0
230
1
50
0
73
2
44
0.96
0
ENDSEC
0
SECTION
2
OBJECTS
0
DICTIONARY
5
C
330
0
100
AcDbDictionary
281
1
3
ACAD_GROUP
350
D
0
DICTIONARY
5
D
330
C
100
AcDbDictionary
281
1
0
ENDSEC
0
EOF
